Extraction (2020)[1080p HDRip – [Hindi+Eng] – HEVC – 5.1 – x265] 1GB

Excuse-us-while-we-figure-out-ways-to-get-kidnapped-and-request-Tyler-to-extract-1080-X-1080.jpg

Format : Matroska
Format version : Version 4
File size : 1.09 GiB
Duration : 1 h 57 min
Overall bit rate : 1 323 kb/s
Writing application : mkvmerge v37.0.0 (‘Leave It’) 64-bit
Writing library : libebml v1.3.9 + libmatroska v1.5.2

Video
ID : 1
Format : HEVC
Format/Info : High Efficiency Video Coding
Format profile : [email protected]@Main
Codec ID : V_MPEGH/ISO/HEVC
Duration : 1 h 57 min
Bit rate : 969 kb/s
Width : 1 920 pixels
Height : 816 pixels
Display aspect ratio : 2.35:1
Frame rate mode : Variable
Frame rate : 24.000 FPS
Color space : YUV
Chroma subsampling : 4:2:0
Bit depth : 8 bits
Bits/(Pixel*Frame) : 0.026
Stream size : 814 MiB (73%)
Default : Yes
Forced : No
Color range : Limited

Audio #1
ID : 4
Format : AC-3
Format/Info : Audio Coding 3
Commercial name : Dolby Digital
Codec ID : A_AC3
Duration : 1 h 57 min
Bit rate mode : Constant
Bit rate : 160 kb/s
Channel(s) : 6 channels
Channel layout : L R C LFE Ls Rs
Sampling rate : 48.0 kHz
Frame rate : 31.250 FPS (1536 SPF)
Bit depth : 16 bits
Compression mode : Lossy
Stream size : 134 MiB (12%)
Language : Hindi
Service kind : Complete Main
Default : No
Forced : No

Audio #2
ID : 5
Format : E-AC-3
Format/Info : Enhanced AC-3
Commercial name : Dolby Digital Plus
Codec ID : A_EAC3
Duration : 1 h 57 min
Bit rate mode : Constant
Bit rate : 192 kb/s
Channel(s) : 6 channels
Channel layout : L R C LFE Ls Rs
Sampling rate : 48.0 kHz
Frame rate : 31.250 FPS (1536 SPF)
Compression mode : Lossy
Stream size : 161 MiB (15%)
Language : English
Service kind : Complete Main
Default : No
Forced : No

Text #1
ID : 2
Format : ASS
Codec ID : S_TEXT/ASS
Codec ID/Info : Advanced Sub Station Alpha
Duration : 1 h 39 min
Bit rate : 61 b/s
Count of elements : 925
Compression mode : Lossless
Stream size : 44.9 KiB (0%)
Language : English
Default : Yes
Forced : No

Text #2
ID : 3
Format : ASS
Codec ID : S_TEXT/ASS
Codec ID/Info : Advanced Sub Station Alpha
Duration : 1 h 22 min
Bit rate : 12 b/s
Count of elements : 167
Compression mode : Lossless
Stream size : 7.34 KiB (0%)
Language : English
Default : No
Forced : Yes


vlcsnap 2020 04 24 02h21m41s708vlcsnap 2020 04 24 02h22m06s145vlcsnap 2020 04 24 02h22m18s848vlcsnap 2020 04 24 02h22m51s326
Gdrive Single Link+Download

https://bit.ly/2VDoJym

Gofile.io single link+Download

https://bit.ly/2XZ0YCm

0 0 vote
Article Rating
Subscribe
Notify of
guest
0 Comments
Inline Feedbacks
View all comments