Evergreen Filmi Gaane (2017) Untouched {Shemaroo} BD50 DTS-HD

video
ID : 4113 (0x1011)
Menu ID : 1 (0x1)
Format : AVC
Format/Info : Advanced Video Codec
Format profile : [email protected]
Format settings : CABAC / 4 Ref Frames
Format settings, CABAC : Yes
Format settings, RefFrames : 4 frames
Format settings, GOP : M=3, N=24
Codec ID : 27
Duration : 4 min 19 s
Bit rate mode : Variable
Bit rate : 924 Mb/s
Maximum bit rate : 25.0 Mb/s
Width : 1 920 pixels
Height : 1 080 pixels
Display aspect ratio : 16:9
Frame rate : 24.000 FPS
Standard : NTSC
Color space : YUV
Chroma subsampling : 4:2:0
Bit depth : 8 bits
Scan type : Progressive
Bits/(Pixel*Frame) : 18.571
Stream size : 27.9 GiB (96%)
Color range : Limited
Color primaries : BT.709
Transfer characteristics : BT.709
Matrix coefficients : BT.709

Audio
ID : 4352 (0x1100)
Menu ID : 1 (0x1)
Format : AC-3
Format/Info : Audio Coding 3
Commercial name : Dolby Digital
Muxing mode : Stream extension
Codec ID : 131
Duration : 4 min 19 s
Bit rate mode : Variable
Bit rate : 640 kb/s
Maximum bit rate : 2 226 kb/s
Channel(s) : 6 channels
Channel layout : L R C LFE Ls Rs
Sampling rate : 48.0 kHz
Frame rate : 31.250 FPS (1536 SPF)
Bit depth : 16 bits
Compression mode : Lossy
Stream size : 19.8 MiB (0%)
Service kind : Complete Main


…..:::::Screenshots:::::….

4647e9c8468c7049dd11a08862e3aac8.jpg
45233bacf8a7a1e99b0055602fc03df8.jpg
916b1c3b31516734bcf9ff17a742dc4f.jpg
a1ef9a77a9553be354780fd11e3f0dd0.jpg
ea23994d835cf4e0695c1087275804fe.jpg
d8d2e4a75041e2edf037a8e33a58bcdd.jpg
815e1c7f4571e78a972ff1c56a64a2a0.jpg
8ae680099f400fa43c72215197255637.jpg

Aa Ab Laut ChalenAa Ab Laut Chalen.m2ts – 810.5 MB

Achcha To Hum Chalte HainAan Milo Sajna.m2ts – 843.6 MB

Bhor Bhaye Panghat PeSatyam Shivam Sundaram.m2ts – 844.5 MB

Chalte ChaltePakeezah.m2ts – 1.1 GB

Chand Sa ChehraAjay.m2ts – 977.2 MB

Chupp Gayi Saari NazareDo Raaste.m2ts – 889.4 MB

Der Na Ho JayeHenna.m2ts – 1.2 GB

Do Lafzon KiThe Great Gambler.m2ts – 931.8 MB

Ek Din Bhik JayegaDharam Karam.m2ts – 918.3 MB

Ghar Aaya Mera PardesiAwaara.m2ts – 558.7 MB

Hey Naam Re (O Sheronwali) Suhaag.m2ts – 988.6 MB

Ho Nahin SaktaDiljale.m2ts – 978.2 MB

Hum Tum Ek Kamre MeinBobby.m2ts – 1.1 GB

Humko Sirf Tumse Pyaar HainBarsaat.m2ts – 682.1 MB

I Am A Disco DancerDisco Dancer.m2ts – 1.3 GB

Jab Hum Jawan HogeBetaab.m2ts – 1.1 GB

Jahan Teri Yeh NazarKaalia.m2ts – 1015.1 MB

Jai Jai Shiv ShankarAap Ki Kasam.m2ts – 1014.1 MB

Jawaani JaanemanNamak Halaal.m2ts – 848.5 MB

Jeena Yahan Marna YahanMera Naam Joker.m2ts – 880.0 MB

Jimmy jimmy – Yaad Aa Rahe HainDisco Dancer.m2ts – 1.7 GB

Jo Haal Dil KaSarfarosh.m2ts – 687.4 MB

Khwab Ho Tum YaTeen Devian.m2ts – 1.0 GB

Kisise Tum Pyar KaroAndaaz.m2ts – 804.3 MB

Kitna Haseen ChehraDilwale.m2ts – 872.6 MB

Main Shayad Tumhare LiyeYeh Raat Phir Na Aayegi.m2ts – 833.2 MB

My Name Is Anthony GonsalvesAmar Akbar Anthony.m2ts – 885.9 MB

Paanch Rupaiya Barah AanaChalti Ka Naam Gaadi.m2ts – 1.0 GB

Pag Ghungroo Ki BandhNamak Halaal.m2ts – 1.5 GB

Pal Pal Dil Ke PaasBlackmail.m2ts – 1002.6 MB

Parda Hai PardaAmar Akbar Anthony.m2ts – 1.5 GB

Pyar Hua Ikraar HuaShree 420.m2ts – 869.9 MB

Pyar Kiya To Darna KyaMughal-E-Azam.m2ts – 1.1 GB

Pyar Mein Dil PeMahaan.m2ts – 829.7 MB

Sun Sahiba SunRam teri Ganga Maili.m2ts – 959.5 MB

Teri Mehfil Mein QismatMughal-E-Azam.m2ts – 1.2 GB

Thade RahiyoPakeezah.m2ts – 1.2 GB

Tu Mujhe QuboolKhuda Gawah.m2ts – 1.2 GB

Tujhse Naraaz nahin – MaleMasoom.m2ts – 1014.9 MB

Unse Mili NazarJhuk Gaya Aasman.m2ts – 736.0 MB

Yeh Galiyan Yeh ChaubaraPrem Rog.m2ts – 1.1 GB

Yeh Mera Prem PatraSangam (2).m2ts – 862.9 MB

Yeh Sama Sama Hain YehJab Jab Phool Khile.m2ts – 901.2 MB

0 0 vote
Article Rating
Subscribe
Notify of
guest
8 Comments
Oldest
Newest Most Voted
Inline Feedbacks
View all comments
Tariq 806
Tariq 806
1 year ago

?? oh no sir… plz new new bd50 hd dts song uploaded

waquas
waquas
1 year ago

chalte chalte link not working

waquas
waquas
1 year ago
Reply to  SaturnWeb

thanks

winrar
winrar
1 year ago

Please upload Golden Collection Hits of Lata Mangeshkar (2 Blue Ray Disc). Thanks

gaganspidey
gaganspidey
1 year ago

You are a lifesaver, thank you from the bottom of my heart.

Katper
Katper
1 year ago

thank u so much

bollyhero
bollyhero
11 months ago

Can somene please re-upload Bhor Bhaye Panghat PeSatyam Shivam Sundaram.m2ts – 844.5 MB? The current link is dead. Thanks!