Ek Villan (2014) [ 4K ] VIDEO SONGS – UNTOUCHED (UHD) BluRay 10 bit – DTS-HD 5.1/ | 10.8 GB | DB9 |

Media Info:

Video
ID : 1
Format : HEVC
Format/Info : High Efficiency Video Coding
Format profile : Main [email protected]@High
Codec ID : V_MPEGH/ISO/HEVC
Duration : 6 min 2 s
Bit rate : 60.6 Mb/s
Width : 3 840 pixels
Height : 1 640 pixels
Display aspect ratio : 2.35:1
Frame rate mode : Constant
Frame rate : 24.000 FPS
Color space : YUV
Chroma subsampling : 4:2:0
Bit depth : 10 bits
Bits/(Pixel*Frame) : 0.401
Stream size : 2.55 GiB (93%)
Default : Yes
Forced : No
Color range : Limited
Color primaries : BT.709
Transfer characteristics : BT.709
Matrix coefficients : BT.709

Audio
ID : 2
Format : DTS XLL
Format/Info : Digital Theater Systems
Commercial name : DTS-HD Master Audio
Codec ID : A_DTS
Duration : 6 min 2 s
Bit rate mode : Variable
Bit rate : 4 893 kb/s
Channel(s) : 6 channels
Channel layout : C L R Ls Rs LFE
Sampling rate : 48.0 kHz
Frame rate : 93.750 FPS (512 SPF)
Bit depth : 24 bits
Compression mode : Lossless
Stream size : 212 MiB (7%)
Language : Hindi
Default : Yes
Forced : No

Screenshots:

 

 

 

01-Banjaara [ 4K ] – Ek Villan (2014) Untouched – UHD x265 10-Bit DTS-HD 5.1 – 2.75 GB – DB9

https://sharer.pw/file/X5-mluXCdNP

02-Zaroorat [ 4K ] – Ek Villan (2014) Untouched – UHD x265 10-Bit DTS-HD 5.1 – 2.43 GB – DB9

https://sharer.pw/file/o6lnJx7S5eC

03-Galliyan [ 4K ] – Ek Villan (2014) Untouched – UHD x265 10-Bit DTS-HD 5.1 – 3.22 GB – DB9

https://sharer.pw/file/7bmS_f5pFUw

04-Hamdard [ 4K ] – Ek Villan (2014) Untouched – UHD x265 10-Bit DTS-HD 5.1 – 2.46 GB – DB9

https://sharer.pw/file/t7-7ffWXgeH

0 0 vote
Article Rating
Subscribe
Notify of
guest
0 Comments
Inline Feedbacks
View all comments