DON (2006) (MUSIC VIDEO ALBUM) 1080p BluRay Rip x264 DTS-HDMA 5.1 ESuBS By-DusIcTv

Thanks To Special 26
DON (2006) (MUSIC VIDEO ALBUM) 1080p BluRay Rip x264 DTS-HDMA 5.1 ESuBS By-DusIcTv

:details:

General
Format                                   : Matroska
Format version                           : Version 4
File size                                : 2.81 GB
Overall bit rate                         : 15.6 Mb/s
Writing application      : mkvmerge v35.0.0 (‘All The Love In The World’) 64-bit
Writing library  : libebml v1.3.9 + libmatroska v1.5.2

Video
ID                                       : 1
Format                                   : AVC
Format/Info                              : Advanced Video Codec
Format profile                           : [email protected]
Format settings                          : CABAC / 4 Ref Frames
Format settings, CABAC                   : Yes
Format settings, Reference frames        : 4 frames
Codec ID                                 : V_MPEG4/ISO/AVC
Bit rate                                 : 11.7 Mb/s
Width                                    : 1 912 pixels
Height                                   : 816 pixels
Display aspect ratio                     : 2.35:1
Frame rate mode                          : Constant
Frame rate                               : 24.000 FPS
Color space                              : YUV
Chroma subsampling                       : 4:2:0
Bit depth                                : 8 bits
Scan type                                : Progressive
Bits/(Pixel*Frame)                       : 0.314
Stream size                              : 425 MiB (75%)
Title                                    : DusIcTv
Default                                  : Yes
Forced                                   : No

Audio
ID                                       : 2
Format                                   : DTS XBR
Format/Info                              : Digital Theater Systems
Commercial name                          : DTS-HD High Resolution Audio
Codec ID                                 : A_DTS
Bit rate mode                            : Constant
Bit rate                                 : 3 840 kb/s
Channel(s)                               : 6 channels
Channel layout                           : C L R Ls Rs LFE
Sampling rate                            : 48.0 kHz
Frame rate                               : 93.750 FPS (512 SPF)
Bit depth                                : 16 bits
Compression mode                         : Lossy
Delay relative to video                  : 3 ms
Stream size                              : 139 MiB (25%)
Title                                    : DusIcTv
Default                                  : Yes
Forced                                   : No

Text
ID                                       : 3
Format                                   : PGS
Muxing mode                              : zlib
Codec ID                                 : S_HDMV/PGS
Codec ID/Info          : Picture based subtitle format used on BDs/HD-DVDs
Bit rate                                 : 13.2 kb/s
Count of elements                        : 79
Stream size                              : 430 KiB (0%)
Title                                    : English
Default                                  : Yes
Forced                                   : No

:screens:










:download2:
01-Main Hoon Don [By-DusIcTv].mkv   564.47 MB

https://thefileslocker.com/l74bnz1frw6i.html

02-Ye Mera Dil [By-DusIcTv].mkv   498.72 MB

https://thefileslocker.com/ljkef2hbauvx.html

03-Mourya Re [By-DusIcTv].mkv   533.67 MB

https://thefileslocker.com/z79nmafmkwzl.html

04-Aaj Ki Raat [By-DusIcTv].mkv   645.32 MB

https://thefileslocker.com/lnoui3m3yt1e.html

05-Khaike Paan Banaraswala [By-DusIcTv].mkv   641.33 MB

https://thefileslocker.com/z862xywqct3k.html

https://thefileslocker.com/1b29jfsnlo5v.html
https://desiupload.to/f/thy2uu-p0rcmdwgkujd7
https://uptobox.com/dsnykj1x9ho7

0 0 vote
Article Rating
Subscribe
Notify of
guest
0 Comments
Inline Feedbacks
View all comments