Dishoom (2016) 1080p Web-HD DL AVC DD 5.1 DusIcTv 6.0GB

Dishoom (2016) Showtimes, Tickets & Reviews | Popcorn Singapore

General
Format : Matroska
Format version : Version 4
File size : 5.93 GiB
Duration : 2 h 2 min
Overall bit rate : 6 957 kb/s
Encoded date : UTC 2020-06-08 20:18:17
Writing application : mkvmerge v47.0.0 (‘Black Flag’) 64-bit
Writing library : libebml v1.3.10 + libmatroska v1.5.2

Video
ID : 1
Format : AVC
Format/Info : Advanced Video Codec
Format profile : [email protected]
Format settings : 2 Ref Frames
Format settings, CABAC : No
Format settings, Reference frames : 2 frames
Codec ID : V_MPEG4/ISO/AVC
Duration : 2 h 2 min
Bit rate : 6 600 kb/s
Width : 1 920 pixels
Height : 1 080 pixels
Display aspect ratio : 16:9
Frame rate mode : Constant
Frame rate : 25.000 FPS
Color space : YUV
Chroma subsampling : 4:2:0
Bit depth : 8 bits
Scan type : Progressive
Bits/(Pixel*Frame) : 0.127
Stream size : 5.60 GiB (94%)
Language : English
Default : Yes
Forced : No

Audio
ID : 2
Format : AC-3
Format/Info : Audio Coding 3
Commercial name : Dolby Digital
Codec ID : A_AC3
Duration : 2 h 2 min
Bit rate mode : Constant
Bit rate : 384 kb/s
Channel(s) : 6 channels
Channel layout : L R C LFE Ls Rs
Sampling rate : 48.0 kHz
Frame rate : 31.250 FPS (1536 SPF)
Compression mode : Lossy
Delay relative to video : -40 ms
Stream size : 335 MiB (6%)
Service kind : Complete Main
Default : No
Forced : No



Gdrive Single Link+Download
https://bit.ly/3heY4jY

PandaFiles Single Link+Download
https://bit.ly/2XSMkMw

0 0 vote
Article Rating
Subscribe
Notify of
guest
0 Comments
Inline Feedbacks
View all comments