Dil Se (1998) Hindi 1080p Untouched WebHD AVC DD 5.1 {Music Video}

Thanks To Special 26

Format : Matroska
Format version : Version 4
File size : 1.75 GB
Overall bit rate : 11.5 Mb/s
Writing library : libebml v1.3.6 + libmatroska v1.4.9

Video
ID : 2
Format : AVC
Format/Info : Advanced Video Codec
Format profile : [email protected]
Format settings : CABAC / 2 Ref Frames
Format settings, CABAC : Yes
Format settings, ReFrames : 2 frames
Format settings, GOP : M=1, N=12
Codec ID : V_MPEG4/ISO/AVC
Bit rate : 11.3 Mb/s
Width : 1 920 pixels
Height : 1 080 pixels
Display aspect ratio : 16:9
Frame rate mode : Constant
Frame rate : 24.000 FPS
Color space : YUV
Chroma subsampling : 4:2:0
Bit depth : 8 bits
Scan type : Progressive
Bits/(Pixel*Frame) : 0.228
Stream size : 543 MiB (98%)
Language : Hindi
Default : Yes
Forced : No

Audio
ID : 1
Format : E-AC-3
Format/Info : Enhanced AC-3
Commercial name : Dolby Digital Plus
Codec ID : A_EAC3
Bit rate mode : Constant
Bit rate : 192 kb/s
Channel(s) : 6 channels
Channel layout : L R C LFE Ls Rs
Sampling rate : 48.0 kHz
Frame rate : 31.250 FPS (1536 SPF)
Compression mode : Lossy
Delay relative to video : 22 ms
Stream size : 9.20 MiB (2%)
Language : Hindi
Service kind : Complete Main
Default : Yes
Forced : No


ScreenShots 

2ae163ceb4fdeb755907272abca7ba28.md.png
18d3ee56b098913fb72cb94acc526953.md.png
b8ce6bc3db1a96c07baf9dff1426b305.md.png
2a26b570ca593bc8d08d30b8dc55573a.md.png
ef9c0a63603600da3cfb055e3fd40bc8.md.png
eac185b8f335298ed444e4e162087118.md.png
0538efce91aebfe2da892110f032c135.md.png
a8cafa5cf9afc69976d09d100de0ad7b.md.png
00b60046c829ec5877f4695c4c1bb1f6.md.png
7a5a217ea7eee0ec22c640a3742586fe.md.png
dde211c9f900f7669468d001097c6a81.md.png
2de26b9e57e30dce2a364dba9013911b.md.png
9d9796c5d2924105f538450c4602a1e8.md.png

{ G-drive } Download  Link 

0 0 vote
Article Rating
Subscribe
Notify of
guest
3 Comments
Oldest
Newest Most Voted
Inline Feedbacks
View all comments
wreed
wreed
1 year ago

link dead

Dr.manoj golaniya
Dr.manoj golaniya
1 year ago

Link is dead.
Reupload it.

Katper
Katper
1 year ago

files deleted, plz reupload….