Dil Hai Ki Manta Nahin (1991) 1080p WeBHD DL AVC DDP 2.0 By-DusIcTv | 8.5 GB |

Dil Hai Ki Manta Nahin (1991) 1080p WeBHD DL AVC DDP 2.0 By-DusIcTv

:details:

Format : Matroska
Format version : Version 4
File size : 8.45 GiB
Duration : 2 h 34 min
Overall bit rate mode : Variable
Overall bit rate : 7 833 kb/s
Writing application : mkvmerge v36.0.0 (‘Is That Jazz?’) 64-bit
Writing library : libebml v1.3.9 + libmatroska v1.5.2

Video
ID : 1
Format : AVC
Format/Info : Advanced Video Codec
Format profile : [email protected]
Format settings : CABAC / 4 Ref Frames
Format settings, CABAC : Yes
Format settings, Reference frames : 4 frames
Codec ID : V_MPEG4/ISO/AVC
Duration : 2 h 34 min
Bit rate mode : Variable
Bit rate : 7 607 kb/s
Maximum bit rate : 15.0 Mb/s
Width : 1 920 pixels
Height : 1 040 pixels
Display aspect ratio : 1.85:1
Frame rate mode : Constant
Frame rate : 25.000 FPS
Color space : YUV
Chroma subsampling : 4:2:0
Bit depth : 8 bits
Scan type : Progressive
Bits/(Pixel*Frame) : 0.152
Stream size : 8.20 GiB (97%)
Default : Yes
Forced : No
Color range : Limited
Color primaries : BT.709
Transfer characteristics : BT.709
Matrix coefficients : BT.709

Audio
ID : 2
Format : E-AC-3
Format/Info : Enhanced AC-3
Commercial name : Dolby Digital Plus
Codec ID : A_EAC3
Duration : 2 h 34 min
Bit rate mode : Constant
Bit rate : 224 kb/s
Channel(s) : 2 channels
Channel layout : L R
Sampling rate : 48.0 kHz
Frame rate : 31.250 FPS (1536 SPF)
Compression mode : Lossy
Stream size : 247 MiB (3%)
Language : English
Service kind : Complete Main
Default : Yes
Forced : No

Text
ID : 3
Format : UTF-8
Codec ID : S_TEXT/UTF8
Codec ID/Info : UTF-8 Plain Text
Duration : 2 h 30 min
Bit rate : 52 b/s
Count of elements : 1711
Stream size : 57.4 KiB (0%)
Default : Yes
Forced : No

:screens:





:download2:
https://thefileslocker.com/o7eolpz96k8d.html

0 0 vote
Article Rating
Subscribe
Notify of
guest
2 Comments
Oldest
Newest Most Voted
Inline Feedbacks
View all comments
Katper
Katper
1 year ago

thanks but can you upload the video songs only??

Katper
Katper
1 year ago