Dil Chahta Hai (2001) (MUSIC VIDEOS ALBUM) 1080p Blu-Ray Rip DTS-HDMA 5.1 By-DusIcTv

Media info
General
Format : Matroska
Format version : Version 4
File size : 3.72 GB
Overall bit rate mode : Variable
Overall bit rate : 15.1 Mb/s
Encoded date : UTC 2020-01-29 04:38:32
Writing application : mkvmerge v41.0.0 (‘Smarra’) 64-bit
Writing library : libebml v1.3.9 + libmatroska v1.5.2

Video
ID : 1
Format : AVC
Format/Info : Advanced Video Codec
Format profile : [email protected]
Format settings : CABAC / 5 Ref Frames
Format settings, CABAC : Yes
Format settings, Reference frames : 5 frames
Codec ID : V_MPEG4/ISO/AVC
Bit rate : 12.5 Mb/s
Width : 1 920 pixels
Height : 800 pixels
Display aspect ratio : 2.40:1
Frame rate mode : Constant
Frame rate : 24.000 FPS
Color space : YUV
Chroma subsampling : 4:2:0
Bit depth : 8 bits
Scan type : Progressive
Bits/(Pixel*Frame) : 0.340
Stream size : 430 MiB (83%)
Language : English
Default : Yes
Forced : No

Audio
ID : 2
Format : DTS XLL
Format/Info : Digital Theater Systems
Commercial name : DTS-HD Master Audio
Codec ID : A_DTS
Bit rate mode : Variable
Bit rate : 2 564 kb/s
Channel(s) : 6 channels
Channel layout : C L R Ls Rs LFE
Sampling rate : 48.0 kHz
Frame rate : 93.750 FPS (512 SPF)
Bit depth : 16 bits
Compression mode : Lossless
Delay relative to video : 6 ms
Stream size : 88.0 MiB (17%)
Default : Yes
Forced : No

Text
ID : 3
Format : PGS
Muxing mode : zlib
Codec ID : S_HDMV/PGS
Codec ID/Info : Picture based subtitle format used on BDs/HD-DVDs
Bit rate : 12.2 kb/s
Count of elements : 51
Stream size : 378 KiB (0%)
Language : English
Default : Yes
Forced : No

This Movie Songs Rip For @Special26

G- Drive Download 

https://sharer.pw/file/3uEq7NEjbIQ

https://drive.klop.me/file/1d7972029a

The File Locker Download 

https://thefileslocker.com/l5goznot7j4p.html

0 0 vote
Article Rating
Subscribe
Notify of
guest
1 Comment
Oldest
Newest Most Voted
Inline Feedbacks
View all comments
Stevfage
11 months ago

Generic Viagra No Precription [url=https://apcialisle.com/#]generic cialis tadalafil[/url] Baclofene Anorexie buy cialis generic online cheap Prezzo Cialis 10