Dil (1990) Hindi 1080p Untouched WebHD AVC {Music Video} ESuBS By-DusIcTv

Media info
General
Format                         : Matroska
Format version                 : Version 4
File size                      : 760 MB
Overall bit rate               : 3583 kb/s
Writing application            : mkvmerge v35.0.0 (‘All The Love In The World’) 64-bit
Writing library                : libebml v1.3.9 + libmatroska v1.5.2

Video
ID                             : 1
Format                         : AVC
Format/Info                    : Advanced Video Codec
Format profile                 : [email protected]
Format settings                : CABAC / 4 Ref Frames
Format settings, CABAC         : Yes
Format settings, Reference fra : 4 frames
Codec ID                       : V_MPEG4/ISO/AVC
Bit rate                       : 3453 kb/s
Width                          : 1920 pixels
Height                         : 1080 pixels
Display aspect ratio           : 16:9
Frame rate mode                : Constant
Frame rate                     : 25.000 FPS
Color space                    : YUV
Chroma subsampling             : 4:2:0
Bit depth                      : 8 bits
Scan type                      : Progressive
Bits/(Pixel*Frame)             : 0.067
Stream size                    : 148 MiB (96%)
Language                       : English
Default                        : Yes
Forced                         : No

Audio
ID                             : 2
Format                         : AAC LC
Format/Info                    : Advanced Audio Codec
Codec ID                       : A_AAC-2
Bit rate                       : 128 kb/s
Channel(s)                     : 2 channels
Channel layout                 : L R
Sampling rate                  : 48.0 kHz
Frame rate                     : 46.875 FPS (1024 SPF)
Compression mode               : Lossy
Delay relative to video        : 19 ms
Stream size                    : 5.49 MiB (4%)
Language                       : Hindi
Default                        : Yes
Forced                         : No

This Movie Songs Rip For @Special26

G- Drive Download

01-Khambe Jaise Khari Hai [By-DusIcTv].mkv – 169.1 MB

02-Mujhe Neend Na Aaye [By-DusIcTv].mkv – 153.8 MB

03-Hum Pyaar Kerne Wale [By-DusIcTv].mkv – 105.0 MB

04-Hum Ne Ghar Choda Hai [By-DusIcTv].mkv – 171.4 MB

05-O Priyaa Priyaa [By-DusIcTv].mkv – 105.5 MB

06-Hum Ne Ghar Choda Hai (2nd) [By-DusIcTv].mkv – 35.5 MB

07-Mujhe Neend Na Aaye (End Roll) [By-DusIcTv].mkv – 20.5 MB

0 0 vote
Article Rating
Subscribe
Notify of
guest
0 Comments
Inline Feedbacks
View all comments