Digital Musical Rays 2011 Tamil AYN Blu-ray Remux 1080p AVC DTS-HD MA.5.1

General

Format                                   : Matroska
Format version                           : Version 4
File size                                : 36.5 GiB
Duration                                 : 2 h 49 min
Overall bit rate mode                    : Variable
Overall bit rate                         : 30.9 Mb/s
Encoded date                             : UTC 2019-03-06 21:44:11
Writing application                      : mkvmerge v31.0.0 (‘Dolores In A Shoestand’) 64-bit
Writing library                          : libebml v1.3.6 + libmatroska v1.4.9

Video
ID                                       : 1
Format                                   : AVC
Format/Info                              : Advanced Video Codec
Format profile                           : [email protected]
Format settings                          : CABAC / 3 Ref Frames
Format settings, CABAC                   : Yes
Format settings, RefFrames               : 3 frames
Codec ID                                 : V_MPEG4/ISO/AVC
Duration                                 : 2 h 49 min
Bit rate mode                            : Variable
Bit rate                                 : 28.0 Mb/s
Maximum bit rate                         : 35.0 Mb/s
Width                                    : 1 920 pixels
Height                                   : 1 080 pixels
Display aspect ratio                     : 16:9
Frame rate mode                          : Constant
Frame rate                               : 23.976 (24000/1001) FPS
Standard                                 : NTSC
Color space                              : YUV
Chroma subsampling                       : 4:2:0
Bit depth                                : 8 bits
Scan type                                : Progressive
Bits/(Pixel*Frame)                       : 0.563
Stream size                              : 33.1 GiB (91%)
Default                                  : Yes
Forced                                   : No
Color range                              : Limited
Color primaries                          : BT.709
Transfer characteristics                 : BT.709
Matrix coefficients                      : BT.709

Audio
ID                                       : 2
Format                                   : DTS XLL
Format/Info                              : Digital Theater Systems
Commercial name                          : DTS-HD Master Audio
Codec ID                                 : A_DTS
Duration                                 : 2 h 49 min
Bit rate mode                            : Variable
Bit rate                                 : 2 839 kb/s
Channel(s)                               : 6 channels
Channel layout                           : C L R Ls Rs LFE
Sampling rate                            : 48.0 kHz
Frame rate                               : 93.750 FPS (512 SPF)
Bit depth                                : 16 bits
Compression mode                         : Lossless
Delay relative to video                  : 292 ms
Stream size                              : 3.35 GiB (9%)
Language                                 : English
Default                                  : Yes
Forced                                   : No

Text
ID                                       : 3
Format                                   : PGS
Muxing mode                              : zlib
Codec ID                                 : S_HDMV/PGS
Codec ID/Info                            : Picture based subtitle format used on BDs/HD-DVDs
Duration                                 : 2 h 48 min
Bit rate                                 : 27.2 kb/s
Count of elements                        : 2799
Stream size                              : 32.8 MiB (0%)
Language                                 : English
Default                                  : Yes
Forced                                   : No

[Desishare.com] Pudicha Puliyan.mp4 – 934.0 MB

[DesiShare.org] Amali-Ko.mkv – 440.7 MB

[Desishare.org] Ennamo (ko).ts – 1.3 GB

[DesiShare.org] Iragai Poley (Naan Mahaan Alla).ts – 1.1 GB

[Desishare.org] Kaiya Pudi (Mynaa).ts – 917.6 MB

[Desishare.org] Nangai Nilaavin(Engeyum Kadhal).mp4 – 911.1 MB

[Desishare.org] Nenjil Nenjil ( Engeyum kadhal.ts – 1011.8 MB

[Desishare.org] Pattampoochi (Kaavalan).ts – 888.7 MB

[DesiShare.org] Poovey poovey ( Siddhu +2).ts – 936.9 MB

[Desishare.org] Thathi Thaavum ( Boss).ts – 1.0 GB

[DesiShare.org] Theeyillai (EnGeYum Kadhal).mp4 – 1.2 GB

[Desishare.org] Thikki Thikki (Nagaram).ts – 1.2 GB

[Desishare.org] Venpaniya (Ko).ts – 1.0 GB

[Desishare.org] Yaar Indha (Boss).ts – 1.1 GB

[DesiShare.org] Yaaradhu ( Kaavalan).ts – 870.5 MB

[DesiShare.org]Gundu ChattiKKule ( Siddhu+2).ts – 977.9 MB

[Desishare.org]-Mynna Mynaa (Mynaa).ts – 944.9 MB

[DesiShare.org]Naan Aalana-Siddhu+2.ts – 469.7 MB

[DesiShare.org]-Step Step (Kaavalan).ts – 971.5 MB

[DesiShare.org]-Vinnai Kappan-Kaavalan The BodyGuard.mkv – 330.7 MB

0 0 vote
Article Rating
Subscribe
Notify of
guest
7 Comments
Oldest
Newest Most Voted
Inline Feedbacks
View all comments
Raj
Raj
1 year ago

Could you upload all the songs from the disk?

Legion
Legion
1 year ago

Bro there is no audio in the files… Please check…

KingPin
KingPin
1 year ago

second song “[DesiShare.org] Amali-Ko.mkv – 440.7 MB” is a corrupt file….it wont play video after 1:20…pls fix it

Legion
Legion
Reply to  KingPin
1 year ago

Are you getting audio in those files?

KingPin
KingPin
Reply to  Legion
1 year ago

yes audio is perfectly working ….use latest VLC or MPC-HC

KingPin
KingPin
Reply to  Legion
1 year ago

yes

Viking
Viking
1 year ago

Thanks for the release … can you please upload “minnal-musical-rays-vol.-1,2,3”.