Dhoom Complete Collection (2004-2013) Blue-ray 720p Full Hindi Movie Download

Format : Matroska
Format version : Version 4
File size : 1.35 GiB
Duration : 2 h 51 min
Overall bit rate : 1 128 kb/s
Movie name : [DesiShare.org]
Encoded date : UTC 2019-07-30 02:41:25
Writing application : mkvmerge v29.0.0 (‘Like It Or Not’) 32-bit
Writing library : libebml v1.3.6 + libmatroska v1.4.9

Video
ID : 1
Format : AVC
Format/Info : Advanced Video Codec
Format profile : [email protected]
Format settings : CABAC / 6 Ref Frames
Format settings, CABAC : Yes
Format settings, ReFrames : 6 frames
Codec ID : V_MPEG4/ISO/AVC
Duration : 2 h 51 min
Bit rate : 1 000 kb/s
Width : 1 280 pixels
Height : 534 pixels
Display aspect ratio : 2.40:1
Frame rate mode : Constant
Frame rate : 24.000 FPS
Color space : YUV
Chroma subsampling : 4:2:0
Bit depth : 8 bits
Scan type : Progressive
Bits/(Pixel*Frame) : 0.061
Stream size : 1.19 GiB (89%)
Title : [DesiShare.org]
W
Color range : Limited
Color primaries : BT.709
Transfer characteristics : BT.709
Matrix coefficients : BT.709

Audio
ID : 2
Format : AAC LC
Format/Info : Advanced Audio Codec Low Complexity
Codec ID : A_AAC-2
Duration : 2 h 51 min
Bit rate : 126 kb/s
Channel(s) : 2 channels
Channel layout : L R
Sampling rate : 44.1 kHz
Frame rate : 43.066 FPS (1024 SPF)
Compression mode : Lossy
Stream size : 154 MiB (11%)
Title : [DesiShare.org]
Default : Yes
Forced : No

f9ad40af47770d28980b5c964d1fb3ef.jpg
b37c6a8bdba5e839d03fe569ae4b6670.jpg
63cb72c6559838c880dab56e14cc78b2.jpg
72171ee511c5bbccfb4cb48c06726cb5.jpg
d224d35c0bdf5ebe46402aa61a4dd9bb.jpg

fc238ae15ffa6f9d6a9d32a41450a58b.jpg
a381e044d8144e2a5b097463feb22d0a.jpg
563ea66b6707edba47617195235a901e.jpg
2d5ba482a585d712bcb06655a3423bb8.jpg
57b8dec84744974f5b7f9f41597cc448.jpg

15b9f50c8598fee5491988807b7b7f6e.jpg
f338dfde14bddce3e4a859feb40e0294.jpg
d9f125a01d184443ba1c6609506b5e58.jpg
cbd169ad17f26341a69f5302d7bf4c05.jpg
7ef5a58bb968a43c4973502e9e2d21c5.jpg

Doom 1 | G-Drive | The File Locker | Play Online | Mega

Doom 2 | G-Drive | The File Locker | Play Online  | Mega 

Doom 3 | G-Drive | The File Locker | Play Online  | Mega 

0 0 vote
Article Rating
Subscribe
Notify of
guest
0 Comments
Inline Feedbacks
View all comments