Dhoom 3 2013 1080p BluRay REMUX AVC DTS-HD MA 5.1-BdC | G- Drive | 28 GB | Parts |

Quote:

We Team Telly Requests all our lovely fans kindly be home and enjoy our releases.Be safe and enjoy

कोरोना से बचाव:
घर पर फिल्में देखें। घर में रहें, सुरक्षित रहें। सरकार द्वारा दिए गए सभी दिशानिर्देशों और सावधानियों का जरूर पालन करें।

Fight Corona:
Watch movies at home. Stay Home, Stay Safe. Must Follow All the guidelines and precautions advised by the Government.

Format : Matroska
Format version : Version 4
File size : 27.2 GiB
Duration : 2 h 51 min
Overall bit rate mode : Variable
Overall bit rate : 22.8 Mb/s
Encoded date : UTC 2020-01-27 10:57:10
Writing application : mkvmerge v40.0.0 (‘Old Town Road + Pony’) 64-bit
Writing library : libebml v1.3.9 + libmatroska v1.5.2

Video
ID : 1
Format : AVC
Format/Info : Advanced Video Codec
Format profile : [email protected]
Format settings : CABAC / 4 Ref Frames
Format settings, CABAC : Yes
Format settings, ReFrames : 4 frames
Format settings, GOP : M=3, N=12
Codec ID : V_MPEG4/ISO/AVC
Duration : 2 h 51 min
Bit rate mode : Variable
Bit rate : 18.0 Mb/s
Maximum bit rate : 23.0 Mb/s
Width : 1 920 pixels
Height : 1 080 pixels
Display aspect ratio : 16:9
Frame rate mode : Constant
Frame rate : 24.000 FPS
Standard : NTSC
Color space : YUV
Chroma subsampling : 4:2:0
Bit depth : 8 bits
Scan type : Progressive
Bits/(Pixel*Frame) : 0.362
Stream size : 21.5 GiB (79%)
Language : Hindi
Default : Yes
Forced : No
Color range : Limited
Color primaries : BT.709
Transfer characteristics : BT.709
Matrix coefficients : BT.709

Audio
ID : 2
Format : DTS XLL
Format/Info : Digital Theater Systems
Commercial name : DTS-HD Master Audio
Codec ID : A_DTS
Duration : 2 h 51 min
Bit rate mode : Variable
Bit rate : 4 733 kb/s
Channel(s) : 6 channels
Channel layout : C L R Ls Rs LFE
Sampling rate : 48.0 kHz
Frame rate : 93.750 FPS (512 SPF)
Bit depth : 24 bits
Compression mode : Lossless
Stream size : 5.65 GiB (21%)
Language : Hindi
Default : Yes
Forced : No

Text #1
ID : 3
Format : UTF-8
Codec ID : S_TEXT/UTF8
Codec ID/Info : UTF-8 Plain Text
Duration : 2 h 45 min
Bit rate : 34 b/s
Count of elements : 1323
Stream size : 42.3 KiB (0%)
Language : Turkish
Default : Yes
Forced : Yes

Text #2
ID : 4
Format : PGS
Muxing mode : zlib
Codec ID : S_HDMV/PGS
Codec ID/Info : Picture based subtitle format used on BDs/HD-DVDs
Duration : 1 h 41 min
Bit rate : 1 008 b/s
Count of elements : 84
Stream size : 747 KiB (0%)
Language : Hindi
Default : No
Forced : No

Text #3
ID : 5
Format : PGS
Muxing mode : zlib
Codec ID : S_HDMV/PGS
Codec ID/Info : Picture based subtitle format used on BDs/HD-DVDs
Duration : 2 h 45 min
Bit rate : 18.4 kb/s
Count of elements : 2580
Stream size : 21.7 MiB (0%)
Language : English
Default : No
Forced : No

Text #4
ID : 6
Format : PGS
Muxing mode : zlib
Codec ID : S_HDMV/PGS
Codec ID/Info : Picture based subtitle format used on BDs/HD-DVDs
Duration : 2 h 45 min
Bit rate : 21.0 kb/s
Count of elements : 2630
Stream size : 24.8 MiB (0%)
Language : Dutch
Default : No
Forced : No

Text #5
ID : 7
Format : PGS
Muxing mode : zlib
Codec ID : S_HDMV/PGS
Codec ID/Info : Picture based subtitle format used on BDs/HD-DVDs
Duration : 2 h 45 min
Bit rate : 11.3 kb/s
Count of elements : 2580
Stream size : 13.4 MiB (0%)
Language : Arabic
Default : No
Forced : No

500a5067ab6056675e7d8778b24a9299.th.png d7c8321aba9cbbfcdc438d1a95724328.th.png 414e0190fac979f2603923cd1f0a8e96.th.png 6f835a0af1a4f88f0e1ccb604ee1a078.th.png 2c737ccdb7dbf741f5279fc71f5698cb.th.png 373cdfb525dae51d1a10c685285845a0.th.png def876d7e2ec6789129263a3ef5ff8d6.th.png 4c59afd1fd96d77c4c376b7b2affc9f1.th.png

G- Drive Full Movie Download 

https://drive.klop.me/file/f79676431c

https://sharer.pw/file/GMnkmk8086r

 

G- Drive parts 

Dhoom 3 2013 1080p BluRay REMUX AVC DTS-HD MA 5.1-BdC.z02

Dhoom 3 2013 1080p BluRay REMUX AVC DTS-HD MA 5.1-BdC.z03

Dhoom 3 2013 1080p BluRay REMUX AVC DTS-HD MA 5.1-BdC.z04

Dhoom 3 2013 1080p BluRay REMUX AVC DTS-HD MA 5.1-BdC.z05

Dhoom 3 2013 1080p BluRay REMUX AVC DTS-HD MA 5.1-BdC.z06

Dhoom 3 2013 1080p BluRay REMUX AVC DTS-HD MA 5.1-BdC.zip

Dhoom 3 2013 1080p BluRay REMUX AVC DTS-HD MA 5.1-BdC.z01

 

The File Locker Parts

Dhoom 3 2013 1080p BluRay REMUX AVC DTS-HD MA 5.1-BdC.z01 – 4.0 GB

Dhoom 3 2013 1080p BluRay REMUX AVC DTS-HD MA 5.1-BdC.zip – 3.1 GB

Dhoom 3 2013 1080p BluRay REMUX AVC DTS-HD MA 5.1-BdC.z06 – 4.0 GB

Dhoom 3 2013 1080p BluRay REMUX AVC DTS-HD MA 5.1-BdC.z05 – 4.0 GB

Dhoom 3 2013 1080p BluRay REMUX AVC DTS-HD MA 5.1-BdC.z04 – 4.0 GB

Dhoom 3 2013 1080p BluRay REMUX AVC DTS-HD MA 5.1-BdC.z03 – 4.0 GB

Dhoom 3 2013 1080p BluRay REMUX AVC DTS-HD MA 5.1-BdC.z02 – 4.0 GB

0 0 vote
Article Rating
Subscribe
Notify of
guest
10 Comments
Oldest
Newest Most Voted
Inline Feedbacks
View all comments
Emilio
1 year ago

Please Please upload Hum Dil De Chuke Sanam 1999 1080p AMAZON

lethal111
lethal111
1 year ago

dear Saturn welcome back.bro, missed you very deeply for last many days…….

plz post Baghbaan 2003 BD50 untouched hindi movie bit early

please

lethal111
lethal111
Reply to  SaturnWeb
1 year ago

dear GOD, plz upload today ,if feasible

fozan
fozan
1 year ago

dear satrun bro please upload housefull 3 bd50 movie .

fozan
fozan
Reply to  SaturnWeb
1 year ago

thank you so much

srk khan
srk khan
1 year ago

thnx for dhoom bro… plz upload saaho BD50 plzzzzz

Raja rajgonda
Raja rajgonda
1 year ago

How to join these files?