Dhoom (2004) Blu-Ray x265 10-Bit 1080p – DTS 5.1 – AC3 5.1 – | 8.44 GB | DB9 |

 

Chai Con Chicas: Dhoom [2004]

Media Info:Format
Format version : Version 2
File size : 8.44 GiB
Duration : 2 h 9 min
Overall bit rate mode : Variable
Overall bit rate : 9 359 kb/s
Movie name : DHOOM.2004.COMPLETE.BLURAY.AVC-DTONE.Title2
Encoded date : UTC 2020-04-12 15:12:52
Writing application : DVDFab 11.0.6.5
Writing library : libebml v1.3.4 + libmatroska v1.4.5

Video
ID : 1
Format : HEVC
Format/Info : High Efficiency Video Coding
Format profile : Main [email protected]@High
Codec ID : V_MPEGH/ISO/HEVC
Duration : 2 h 9 min
Bit rate : 6 354 kb/s
Width : 1 920 pixels
Height : 820 pixels
Display aspect ratio : 2.35:1
Frame rate mode : Constant
Frame rate : 24.000 FPS
Color space : YUV
Chroma subsampling : 4:2:0
Bit depth : 10 bits
Bits/(Pixel*Frame) : 0.168
Stream size : 5.73 GiB (68%)
Default : Yes
Forced : No
Color range : Limited
Color primaries : BT.709
Transfer characteristics : BT.709
Matrix coefficients : BT.709

Audio #1
ID : 2
Format : DTS XLL
Format/Info : Digital Theater Systems
Commercial name : DTS-HD Master Audio
Codec ID : A_DTS
Duration : 2 h 9 min
Bit rate mode : Variable
Bit rate : 2 362 kb/s
Channel(s) : 6 channels
Channel layout : C L R Ls Rs LFE
Sampling rate : 48.0 kHz
Frame rate : 93.750 FPS (512 SPF)
Bit depth : 16 bits
Compression mode : Lossless
Stream size : 2.13 GiB (25%)
Language : Hindi
Default : Yes
Forced : No

Audio #2
ID : 3
Format : AC-3
Format/Info : Audio Coding 3
Commercial name : Dolby Digital
Codec ID : A_AC3
Duration : 2 h 9 min
Bit rate mode : Constant
Bit rate : 640 kb/s
Channel(s) : 6 channels
Channel layout : L R C LFE Ls Rs
Sampling rate : 48.0 kHz
Frame rate : 31.250 FPS (1536 SPF)
Compression mode : Lossy
Stream size : 591 MiB (7%)
Language : Hindi
Service kind : Complete Main
Default : No
Forced : No

Screenshots:

Dhoom (2004) Brrip x265 10-Bit 1080p DTS 5.1 – AC3 5.1 – DB9.mkv [8.44 GB]

LINK 1 : https://sharer.pw/file/rme6wtEOQhz

LINK 2 : https://new.gdtot.com/file/9063402286

0 0 vote
Article Rating
Subscribe
Notify of
guest
6 Comments
Oldest
Newest Most Voted
Inline Feedbacks
View all comments
prakash
prakash
1 year ago

apna sapna money money
Mere brother ki dulhan
ram leela
please

Himanshu Joshi
1 year ago

Thanks bhatt dhairy for upload Dhoom superb print

Michael
Michael
3 months ago

Link is dead. Please reupload.