Dhoom 2004 BDRip X264 1080p 11.0Gb

The Bang (Dhoom): A Classic Cops and Robbers Tale in the 21st ...

Complete name :Dhoom 2004.BDRip.X264.1080p.mkv
Format : Matroska
Format version : Version 4
File size : 11.3 GiB
Duration : 2 h 9 min
Overall bit rate : 12.5 Mb/s
Encoded date : UTC 2020-03-28 06:51:43
Writing application : mkvmerge v6.1.0 (‘Old Devil’) built on Mar 2 2013 14:32:37
Writing library : libebml v1.3.0 + libmatroska v1.4.0

Video
ID : 1
Format : AVC
Format/Info : Advanced Video Codec
Format profile : [email protected]
Format settings : CABAC / 8 Ref Frames
Format settings, CABAC : Yes
Format settings, Reference frames : 8 frames
Codec ID : V_MPEG4/ISO/AVC
Duration : 2 h 9 min
Bit rate : 11.0 Mb/s
Width : 1 920 pixels
Height : 816 pixels
Display aspect ratio : 2.35:1
Frame rate mode : Constant
Frame rate : 24.000 FPS
Color space : YUV
Chroma subsampling : 4:2:0
Bit depth : 8 bits
Scan type : Progressive
Bits/(Pixel*Frame) : 0.293
Stream size : 9.70 GiB (86%)
Title : Ant8 [BwTorrents.Ru]
Writing library : x264 core 92 r1510 33d382a
Encoding settings : cabac=1 / ref=8 / deblock=1:-2:-1 / analyse=0x3:0x133 / me=umh / subme=7 / psy=1 / psy_rd=1.00:0.20 / mixed_ref=1 / me_range=32 / chroma_me=1 / trellis=2 / 8x8dct=1 / cqm=0 / deadzone=21,11 / fast_pskip=0 / chroma_qp_offset=-3 / threads=6 / sliced_threads=0 / nr=0 / decimate=0 / interlaced=0 / constrained_intra=0 / bframes=8 / b_pyramid=2 / b_adapt=2 / b_bias=0 / direct=3 / wpredb=1 / wpredp=2 / keyint=250 / keyint_min=25 / scenecut=40 / intra_refresh=0 / rc_lookahead=50 / rc=2pass / mbtree=1 / bitrate=11000 / ratetol=1.0 / qcomp=0.60 / qpmin=10 / qpmax=51 / qpstep=4 / cplxblur=20.0 / qblur=0.5 / vbv_maxrate=50000 / vbv_bufsize=50000 / ip_ratio=1.40 / aq=1:1.00 / nal_hrd=none
Language : Hindi
Default : Yes
Forced : No

Audio
ID : 2
Format : DTS
Format/Info : Digital Theater Systems
Codec ID : A_DTS
Duration : 2 h 9 min
Bit rate mode : Constant
Bit rate : 1 509 kb/s
Channel(s) : 6 channels
Channel layout : C L R Ls Rs LFE
Sampling rate : 48.0 kHz
Frame rate : 93.750 FPS (512 SPF)
Bit depth : 16 bits
Compression mode : Lossy
Stream size : 1.36 GiB (12%)
Title : DTS 5.1 @ 1510 Kbps – Ant8 [BwTorrents.Ru]
Language : Hindi
Default : No
Forced : No

Menu
00:00:00.000 : :00:00:00.000
00:04:49.000 : :????? – Shikdum
00:10:10.458 : :00:10:10.458
00:12:25.541 : :00:12:25.541
00:16:57.875 : :00:16:57.875
00:22:23.416 : :00:22:23.416
00:25:25.416 : :00:25:25.416
00:33:04.250 : :00:33:04.250
00:35:41.708 : :00:35:41.708
00:40:06.291 : :00:40:06.291
00:43:30.750 : :00:43:30.750
00:51:33.583 : :????? – Dilbara
00:56:09.958 : :00:56:09.958
00:59:51.583 : :00:59:51.583
01:02:40.666 : :01:02:40.666
01:07:42.000 : :01:07:42.000
01:08:53.375 : :????? – Dhoom Machale
01:15:16.958 : :01:15:16.958
01:19:34.083 : :01:19:34.083
01:25:58.916 : :01:25:58.916
01:29:59.750 : :01:29:59.750
01:32:35.916 : :01:32:35.916
01:35:33.875 : :01:35:33.875
01:39:43.791 : :????? – Salaame
01:45:27.333 : :01:45:27.333
01:50:19.500 : :01:50:19.500
01:55:21.166 : :01:55:21.166
02:05:56.500 : :????? – Dhoom Dhoom

vlcsnap-2020-03-28-02h32m52s098.pngvlcsnap-2020-03-28-02h33m01s577vlcsnap-2020-03-28-02h33m09s734vlcsnap-2020-03-28-02h33m15s070vlcsnap-2020-03-28-02h33m34s960vlcsnap-2020-03-28-02h33m47s846vlcsnap-2020-03-28-02h33m54s726vlcsnap-2020-03-28-02h34m04s217

Gdrive Single Link+ Download
https://bit.ly/3bvhcGQ

7-Up.net Single Link+ Download
https://bit.ly/3dAt7VO

0 0 vote
Article Rating
Subscribe
Notify of
guest
2 Comments
Oldest
Newest Most Voted
Inline Feedbacks
View all comments
Pranav Patil
Pranav Patil
11 months ago

Plz upload Arya(2004) and Arya 2(2009) plz….full hd with English subtitles

Himanshu Joshi
Himanshu Joshi
11 months ago

Please upload Sunday 2008 bollywood movie in your print edition