Dhamaal (2007) 1080p Untouched WEB-DL x264 {Hindi DD 5.1 640 kbps} ESub By~Hammer~ | G- Drive |

 


 

General

Format                                   : Matroska
Format version                           : Version 4
File size                                : 6.09 GiB
Duration                                 : 2 h 7 min
Overall bit rate mode                    : Variable
Overall bit rate                         : 6 824 kb/s
Movie name                               : Dhamaal (2007) 1080p Untouched WEB-DL x264 {Hindi DD 5.1 640 kbps} ESub By~Hammer~
Bit rate mode                            : Variable
Bit rate                                 : 6 190 kb/s
Maximum bit rate                         : 9 285 kb/s
Width                                    : 1 920 pixels
Height                                   : 1 080 pixels
Display aspect ratio                     : 16:9
Frame rate mode                          : Constant
Frame rate                               : 25.000 FPS
Title                                    : By~Hammer~
Language                                 : Hindi
Default                                  : Yes
Forced                                   : No

Audio
Format                                   : AC-3
Format/Info                              : Audio Coding 3
Commercial name                          : Dolby Digital
Codec ID                                 : A_AC3
Duration                                 : 2 h 7 min
Bit rate mode                            : Constant
Bit rate                                 : 640 kb/s
Channel(s)                               : 6 channels
Channel layout                           : L R C LFE Ls Rs
Sampling rate                            : 48.0 kHz
Frame rate                               : 31.250 FPS (1536 SPF)
Compression mode                         : Lossy
Stream size                              : 585 MiB (9%)
Title                                    : Hindi DD 5.1 640 kbps By~Hammer~
Language                                 : Hindi
Default                                  : Yes
Forced                                   : No

Text
Format                                   : UTF-8
Codec ID                                 : S_TEXT/UTF8
Codec ID/Info                            : UTF-8 Plain Text
Duration                                 : 2 h 3 min
Bit rate                                 : 55 b/s
Count of elements                        : 1639
Stream size                              : 49.9 KiB (0%)
Title                                    : English SRT
Language                                 : English
Default                                  : Yes
Forced                                   : No















G- Drive Download 

The File Locker Download 

0 0 vote
Article Rating
Subscribe
Notify of
guest
1 Comment
Oldest
Newest Most Voted
Inline Feedbacks
View all comments
Akshat
Akshat
1 year ago

Please upload Disney’s Narnia’s Trilogy in 1080p HEVC and please upload in 5.1 Hindi Audio for all the parts. Bro the first one The Chronicles of Narnia: The Lion, the Witch and the Wardrobe’s Hindi DD 5.1 Audio is very rare. Please upload in 5.1. I have come to know that it’s available on Netflix. I know that it’s available on this website but it 2.0 audio so SaturnWeb Bro PLEASE PLEASE PLEASE UPLOAD.