Devdas (2002) Hindi 1080p WebHD AVC {Music Video} ESuBS By-DusIcTv

Devdas (2002) Hindi 1080p WebHD AVC {Music Video} ESuBS By-DusIcTv

:details:
Format                                   : Matroska
Format version                           : Version 4
File size                                : 3.85 GB
Overall bit rate                         : 12.5 Mb/s
Encoded date                             : UTC 2019-04-20 04:38:47
Writing application     : mkvmerge v32.0.0 (‘Astral Progressions’) 32-bit
Writing library  : libebml v1.3.7 + libmatroska v1.5.0

Video
ID                                       : 1
Format                                   : AVC
Format/Info                              : Advanced Video Codec
Format profile                           : [email protected]
Format settings                          : CABAC / 4 Ref Frames
Format settings, CABAC                   : Yes
Format settings, Reference frames        : 4 frames
Codec ID                                 : V_MPEG4/ISO/AVC
Bit rate                                 : 12.3 Mb/s
Width                                    : 1 920 pixels
Height                                   : 816 pixels
Display aspect ratio                     : 2.35:1
Frame rate mode                          : Constant
Frame rate                               : 24.000 FPS
Color space                              : YUV
Chroma subsampling                       : 4:2:0
Bit depth                                : 8 bits
Scan type                                : Progressive
Bits/(Pixel*Frame)                       : 0.327
Stream size                              : 279 MiB (98%)
Default                                  : Yes
Forced                                   : No

Audio
ID                                       : 2
Format                                   : AAC LC
Format/Info                              : Advanced Audio Codec
Codec ID                                 : A_AAC-2
Bit rate                                 : 192 kb/s
Channel(s)                               : 2 channels
Channel layout                           : L R
Sampling rate                            : 48.0 kHz
Frame rate                               : 46.875 FPS (1024 SPF)
Compression mode                         : Lossy
Delay relative to video                  : 15 ms
Stream size                              : 4.37 MiB (2%)
Default                                  : Yes
Forced                                   : No

:screenshots:



























:download2:
01-Frist (Dhun) [By-DusIcTv].mkv   283.80 MB

https://thefileslocker.com/1rqavbxjt8wq.html

02-Silsila Ye Chahat Ka [By-DusIcTv].mkv   436.31 MB

https://thefileslocker.com/r0fy6w0z3mze.html

03-Bairi Piya [By-DusIcTv].mkv   308.79 MB

https://thefileslocker.com/do5oenxpdwah.html

04-Morey Piya [By-DusIcTv].mkv   487.45 MB

https://thefileslocker.com/oqx80tzrzv7d.html

05-Hamesha Tumko Chaha [By-DusIcTv].mkv   526.02 MB

https://thefileslocker.com/u9els7msp1p8.html

06-Maar Daala [By-DusIcTv].mkv   412.57 MB

https://thefileslocker.com/7617e6vsov3n.html

07-Kaahe Chhed [By-DusIcTv].mkv   461.82 MB

https://thefileslocker.com/nxhhzrcd93cb.html

08-Dola Re Dola [By-DusIcTv].mkv   548.50 MB

https://thefileslocker.com/m2hby09sebr5.html

09-Chalak Chalak [By-DusIcTv].mkv   484.30 MB

https://thefileslocker.com/7x2xd75khsy4.html

https://thefileslocker.com/m20u5n3iqtjw.html
https://uptobox.com/4gau7ccpxjdq
https://desiupload.to/f/76xivo-f3v8l79pdcgaq

0 0 vote
Article Rating
Subscribe
Notify of
guest
1 Comment
Oldest
Newest Most Voted
Inline Feedbacks
View all comments
mickymouse
mickymouse
1 year ago

if possible please share gdrive link . zip link would be great.