Deewangee (2002) (MUSIC VIDEOS ALBUM) 1080p WebHD AVC DD 5.1 By-DusIcTv

General
Format : Matroska
Format version : Version 4
File size : 2.30 GB
Overall bit rate : 12.8 Mb/s
Encoded date : UTC 2020-01-10 14:14:54
Writing application : mkvmerge v41.0.0 (‘Smarra’) 64-bit
Writing library : libebml v1.3.9 + libmatroska v1.5.2

Video
ID : 1
Format : AVC
Format/Info : Advanced Video Codec
Format profile : [email protected]
Format settings : CABAC / 4 Ref Frames
Format settings, CABAC : Yes
Format settings, Reference frames : 4 frames
Codec ID : V_MPEG4/ISO/AVC
Bit rate : 12.1 Mb/s
Width : 1 920 pixels
Height : 816 pixels
Display aspect ratio : 2.35:1
Frame rate mode : Variable
Frame rate : 23.976 FPS
Color space : YUV
Chroma subsampling : 4:2:0
Bit depth : 8 bits
Scan type : Progressive
Bits/(Pixel*Frame) : 0.323
Stream size : 377 MiB (95%)
Language : Hindi
Default : Yes
Forced : No

Audio
ID : 2
Format : AC-3
Format/Info : Audio Coding 3
Commercial name : Dolby Digital
Codec ID : A_AC3
Bit rate mode : Constant
Bit rate : 640 kb/s
Channel(s) : 6 channels
Channel layout : L R C LFE Ls Rs
Sampling rate : 48.0 kHz
Frame rate : 31.250 FPS (1536 SPF)
Compression mode : Lossy
Delay relative to video : 3 ms
Stream size : 19.9 MiB (5%)
Service kind : Complete Main
Default : Yes
Forced : No

Zip Download 

 

The File Locker Download

01-Deewangee (1st) [By-DusIcTv].mkv – 186.9 MB

02-Hai Ishq Khata [By-DusIcTv].mkv – 447.4 MB

03-Saat Suron Ka [By-DusIcTv].mkv – 397.2 MB

04-Pyar Se Pyare Tum Ho [By-DusIcTv].mkv – 345.4 MB

05-Deewangee (2nd) [By-DusIcTv].mkv – 156.2 MB

06-Ai Ajnabi [By-DusIcTv].mkv – 99.5 MB

07-Dholi O Dholi [By-DusIcTv].mkv – 514.5 MB

08-Deewangee End Roll [By-DusIcTv].mkv – 215.3 MB

 

0 0 vote
Article Rating
Subscribe
Notify of
guest
0 Comments
Inline Feedbacks
View all comments