De Dana Dan (2009) (MUSIC VIDEO ALBUM) Untouched – BD50 PCM 5.1 ESuBS By-DusIcTv


General
ID                                       : 0 (0x0)
Format                                   : BDAV
Format                                   : M2ts
Format/Info                              : Blu-ray Video
File size                                : 1 002 MiB
Overall bit rate mode                    : Variable
Overall bit rate                         : 34.5 Mb/s
Maximum Overall bit rate                 : 48.0 Mb/s

Video
ID                                       : 4113 (0x1011)
Menu ID                                  : 1 (0x1)
Format                                   : VC-1
Format profile                           : [email protected]
Codec ID                                 : 234
Bit rate                                 : 28.3 Mb/s
Width                                    : 1 920 pixels
Height                                   : 1 080 pixels
Display aspect ratio                     : 16:9
Frame rate                               : 23.976 (24000/1001) FPS
Color space                              : YUV
Chroma subsampling                       : 4:2:0
Bit depth                                : 8 bits
Scan type                                : Progressive
Compression mode                         : Lossy
Bits/(Pixel*Frame)                       : 0.569
Stream size                              : 822 MiB (82%)

Audio #1
ID                                       : 4352 (0x1100)
Menu ID                                  : 1 (0x1)
Format                                   : PCM
Format settings                          : Big / Signed
Muxing mode                              : Blu-ray
Codec ID                                 : 128
Bit rate mode                            : Constant
Bit rate                                 : 4 608 kb/s
Channel(s)                               : 6 channels
Channel layout                           : L R C Ls Rs LFE
Sampling rate                            : 48.0 kHz
Bit depth                                : 16 bits
Stream size                              : 134 MiB (13%)

Audio #2
ID                                       : 4353 (0x1101)
Menu ID                                  : 1 (0x1)
Format                                   : AC-3
Format/Info                              : Audio Coding 3
Commercial name                          : Dolby Digital
Codec ID                                 : 129
Bit rate mode                            : Constant
Bit rate                                 : 192 kb/s
Channel(s)                               : 2 channels
Channel layout                           : L R
Sampling rate                            : 48.0 kHz
Frame rate                               : 31.250 FPS (1536 SPF)
Bit depth                                : 16 bits
Compression mode                         : Lossy
Stream size                              : 5.58 MiB (1%)
Service kind                             : Complete Main

Text
ID                                       : 4608 (0x1200)
Menu ID                                  : 1 (0x1)
Format                                   : PGS
Codec ID                                 : 144

G-Drive Download

01-Rishte Naate [By-DusIcTv].m2ts – 1001.8 MB
02-Hotty Naughty [By-DusIcTv].m2ts – 752.0 MB
03-Gale Lag Ja [By-DusIcTv].m2ts – 963.3 MB
04-Baamulaiza [By-DusIcTv].m2ts – 818.5 MB
05-Paisa [By-DusIcTv].m2ts – 752.3 MB
06. Paisa Club Mix [By-DusIcTv].m2ts – 754.4 MB

0 0 vote
Article Rating
Subscribe
Notify of
guest
2 Comments
Oldest
Newest Most Voted
Inline Feedbacks
View all comments
VICTORIA
VICTORIA
1 year ago

thanks for uploading this… please upload Shaandaar • 2015 • BD50 • YrF • AVC TrueHD (MUSIC VIDEO ALBUM) – Hon3y Exclusive

Tariq 806
Tariq 806
1 year ago

???? My favorite Untouched – BD50 AVC DTS-HDMA HD DTS song.?????❤

?Thank you so much স্যার? To upload : De Dana Dan (2009) (MUSIC VIDEO ALBUM) Untouched – BD50 PCM 5.1