Darr (1993) (MUSIC VIDEO ALBUM) 1080p BluRay Rip x264 DTS-HDMA 5.1 ESuBS By-DusIcTv

Darr (1993) (MUSIC VIDEO ALBUM) 1080p BluRay Rip x264 DTS-HDMA 5.1 ESuBS By-DusIcTv

Thansk To Special 26

xxxxxxxxxxxxxxxxxxxxxxxxxxxxxxxxxxxxxxxxxxxxxxxxxxxxxxxxxxxxxxxxxxxxxxxxxxxxxxxxxxxxxxxxxxxxxxxxxxx
Darr (1993) (MUSIC VIDEO ALBUM) 1080p BluRay Rip x264 DTS-HDMA 5.1 ESuBS By-DusIcTv
xxxxxxxxxxxxxxxxxxxxxxxxxxxxxxxxxxxxxxxxxxxxxxxxxxxxxxxxxxxxxxxxxxxxxxxxxxxxxxxxxxxxxxxxxxxxxxxxxxx

:details:

Format : Matroska
Format version : Version 4
File size : 3.7 GB
Overall bit rate mode : Variable
Overall bit rate : 12.9 Mb/s
Writing application : mkvmerge v36.0.0 (‘Is That Jazz?’) 32-bit
Writing library : libebml v1.3.9 + libmatroska v1.5.2

Video
ID : 1
Format : AVC
Format/Info : Advanced Video Codec
Format profile : [email protected]
Format settings : CABAC / 5 Ref Frames
Format settings, CABAC : Yes
Format settings, Reference frames : 5 frames
Codec ID : V_MPEG4/ISO/AVC
Bit rate : 10.1 Mb/s
Width : 1 920 pixels
Height : 816 pixels
Display aspect ratio : 2.35:1
Frame rate mode : Constant
Frame rate : 24.000 FPS
Color space : YUV
Chroma subsampling : 4:2:0
Bit depth : 8 bits
Scan type : Progressive
Bits/(Pixel*Frame) : 0.270
Stream size : 196 MiB (78%)
Language : English
Default : Yes
Forced : No
Color range : Limited
Color primaries : BT.709
Transfer characteristics : BT.709
Matrix coefficients : BT.709

Audio
ID : 2
Format : DTS XLL
Format/Info : Digital Theater Systems
Commercial name : DTS-HD Master Audio
Codec ID : A_DTS
Bit rate mode : Variable
Bit rate : 2 776 kb/s
Channel(s) : 6 channels
Channel layout : C L R Ls Rs LFE
Sampling rate : 48.0 kHz
Frame rate : 93.750 FPS (512 SPF)
Bit depth : 16 bits
Compression mode : Lossless
Stream size : 53.7 MiB (21%)
Language : Hindi
Default : Yes
Forced : No

Text #1
ID : 3
Format : PGS
Muxing mode : zlib
Codec ID : S_HDMV/PGS
Codec ID/Info : Picture based subtitle format used on BDs/HD-DVDs
Bit rate : 13.5 kb/s
Count of elements : 58
Stream size : 241 KiB (0%)
Language : Arabic
Default : Yes
Forced : No

Text #2
ID : 4
Format : PGS
Muxing mode : zlib
Codec ID : S_HDMV/PGS
Codec ID/Info : Picture based subtitle format used on BDs/HD-DVDs
Bit rate : 28.0 kb/s
Count of elements : 58
Stream size : 501 KiB (0%)
Language : English
Default : No
Forced : No
Chapter: Yes

:screenshots:














:download2:
01-Jadu Teri Nazar (1st) [By-DusIcTv].mkv   250.01 MB

https://thefileslocker.com/sy94x07ckx1g.html

02-Jadu Teri Nazar (2nd) [By-DusIcTv].mkv   118.64 MB

https://thefileslocker.com/e7r4kx4mrz1c.html

03-Darwaza Band Karlo [By-DusIcTv].mkv   605.02 MB

https://thefileslocker.com/u566utj2ujx9.html

04-Obsession [By-DusIcTv].mkv   228.07 MB

https://thefileslocker.com/g3fholdf7v3f.html

05-Ang Se Ang Lagana [By-DusIcTv].mkv   621.54 MB

https://thefileslocker.com/ug8v8f1adux6.html

06-Jadu Teri Nazar (3rd) [By-DusIcTv].mkv   53.87 MB

https://thefileslocker.com/sekhemubwis9.html

07-Sola Button Meri Choli Pe [By-DusIcTv].mkv   668.50 MB

https://thefileslocker.com/sbvut97n9j6k.html

08-Jadu Teri Nazar (4th) [By-DusIcTv].mkv   109.63 MB

https://thefileslocker.com/lv60n11fxrwg.html

09-Likha Hai Yeh [By-DusIcTv].mkv   543.61 MB

https://thefileslocker.com/8dnqpijfh4rx.html

10-Jadu Teri Nazar (5th) [By-DusIcTv].mkv   81.05 MB

https://thefileslocker.com/pkocpvstqvjj.html

11-Tu Mere Samne [By-DusIcTv].mkv   569.66 MB

https://thefileslocker.com/v55lys6bims3.html

https://thefileslocker.com/0gpzquhm7ujm.html
https://desiupload.to/f/wy7835-anx8i9ihfmrsg
https://uptobox.com/k2xkr4a4c2s6

0 0 vote
Article Rating
Subscribe
Notify of
guest
1 Comment
Oldest
Newest Most Voted
Inline Feedbacks
View all comments
mickymouse
mickymouse
1 year ago

Can u share it’s gdrive link?