Dagaalty (2020) 1080p Proper HDRip – HEVC – x265 1.5GB

5e398d78bfd.md.jpg

Format : Matroska
Format version : Version 4
File size : 1.43 GiB
Duration : 2 h 0 min
Overall bit rate mode : Variable
Overall bit rate : 1 701 kb/s
Writing application : Lavf58.28.101
Writing library : Lavf58.28.101
ErrorDetectionType : Per level 1
Video
ID : 1
Format : HEVC
Format/Info : High Efficiency Video Coding
Format profile : [email protected]@Main
Codec ID : V_MPEGH/ISO/HEVC
Duration : 2 h 0 min
Bit rate : 1 555 kb/s
Width : 1 920 pixels
Height : 816 pixels
Display aspect ratio : 2.35:1
Frame rate mode : Constant
Frame rate : 25.000 FPS
Color space : YUV
Chroma subsampling : 4:2:0
Bit depth : 8 bits
Bits/(Pixel*Frame) : 0.040
Stream size : 1.31 GiB (91%)
Writing library : Lavc58.53.100 libx265
Default : Yes
Forced : No
Color range : Limited
Audio
ID : 2
Format : Vorbis
Format settings, Floor : 1
Codec ID : A_VORBIS
Duration : 2 h 0 min
Bit rate mode : Variable
Bit rate : 112 kb/s
Channel(s) : 2 channels
Sampling rate : 48.0 kHz
Compression mode : Lossy
Stream size : 96.3 MiB (7%)
Writing application : Lavc58.53.100
Writing library : libVorbis (Now 100% fewer shells) (20180316 (Now 100% fewer shells))
Default : Yes
Forced : No


vlcsnap 2020 04 29 13h50m35s419vlcsnap 2020 04 29 13h52m08s856vlcsnap 2020 04 29 13h52m26s504vlcsnap 2020 04 29 13h52m36s940vlcsnap 2020 04 29 13h53m31s971vlcsnap 2020 04 29 13h53m55s599
Gdrive Single Link+Download

0 0 vote
Article Rating
Subscribe
Notify of
guest
0 Comments
Inline Feedbacks
View all comments