Daawat-E-Ishq (2014) (MUSIC VIDEO ALBUM) 1080p BluRay Rip x264 DTS-HDMA 5.1 ESuBS By-DusIcTv

Daawat-E-Ishq (2014) (MUSIC VIDEO ALBUM) 1080p BluRay Rip x264 DTS-HDMA 5.1 ESuBS By-DusIcTv

:details:

Format                                   : Matroska
Format version                           : Version 4
File size                                : 1.76 GB
Overall bit rate mode                    : Variable
Overall bit rate                         : 11.8 Mb/s
Encoded date                             : UTC 2019-06-23 11:58:24
Writing application   : mkvmerge v34.0.0 (‘Sight and Seen’) 64-bit
Writing library  : libebml v1.3.7 + libmatroska v1.5.0

Video
ID                                       : 1
Format                                   : AVC
Format/Info                              : Advanced Video Codec
Format profile                           : [email protected]
Format settings                          : CABAC / 5 Ref Frames
Format settings, CABAC                   : Yes
Format settings, Reference frames        : 5 frames
Codec ID                                 : V_MPEG4/ISO/AVC
Bit rate                                 : 6 799 kb/s
Width                                    : 1 920 pixels
Height                                   : 816 pixels
Display aspect ratio                     : 2.35:1
Frame rate mode                          : Constant
Frame rate                               : 24.000 FPS
Color space                              : YUV
Chroma subsampling                       : 4:2:0
Bit depth                                : 8 bits
Scan type                                : Progressive
Bits/(Pixel*Frame)                       : 0.181
Stream size                              : 125 MiB (58%)
Title                                    : DusIcTv
Language                                 : English
Default                                  : Yes
Forced                                   : No
Color range                              : Limited
Color primaries                          : BT.709
Transfer characteristics                 : BT.709
Matrix coefficients                      : BT.709

Audio
ID                                       : 2
Format                                   : DTS XLL
Format/Info                              : Digital Theater Systems
Commercial name                          : DTS-HD Master Audio
Codec ID                                 : A_DTS
Bit rate mode                            : Variable
Bit rate                                 : 4 983 kb/s
Channel(s)                               : 6 channels
Channel layout                           : C L R Ls Rs LFE
Sampling rate                            : 48.0 kHz
Frame rate                               : 93.750 FPS (512 SPF)
Bit depth                                : 24 bits
Compression mode                         : Lossless
Delay relative to video                  : 2 ms
Stream size                              : 91.7 MiB (42%)
Title                                    : DusIcTv
Language                                 : Hindi
Default                                  : Yes
Forced                                   : No

:screenshots:









:download2:
01-Shayarana [By-DusIcTv].mkv   217.01 MB

https://thefileslocker.com/zg2k5s8igla0.html

02-Daawat-e-Ishq [By-DusIcTv].mkv   511.10 MB

https://thefileslocker.com/u7prsvqj2a0v.html

03-Mannat [By-DusIcTv].mkv   508.23 MB

https://thefileslocker.com/o60shj8764q1.html

04-Jaadu Tone Waaliyan [By-DusIcTv].mkv   183.03 MB

https://thefileslocker.com/92pvbqwge8ki.html

05-Rangreli [By-DusIcTv].mkv   385.22 MB

https://thefileslocker.com/n7403j7ikykv.html

https://thefileslocker.com/vabbngk517z2.html
https://desiupload.to/f/svsjcr-qskgaxbyqtadc
https://uptobox.com/hlg02cxsj0fp

0 0 vote
Article Rating
Subscribe
Notify of
guest
0 Comments
Inline Feedbacks
View all comments