Cricket 2019 West Indies Vs India 3rd ODI 1080p X264 Full Download | 21GB

Format : Matroska
Format version : Version 4
File size : 1 001 MiB
Duration : 22 min 40 s
Overall bit rate mode : Variable
Overall bit rate : 6 174 kb/s
Movie name : [DesiShare.org]
Encoded date : UTC 2019-08-18 16:02:02
Writing application : mkvmerge v29.0.0 (‘Like It Or Not’) 32-bit
Writing library : libebml v1.3.6 + libmatroska v1.4.9 / Lavf58.27.103

Video
ID : 1
Format : AVC
Format/Info : Advanced Video Codec
Format profile : [email protected]
Format settings : CABAC / 2 Ref Frames
Format settings, CABAC : Yes
Format settings, ReFrames : 2 frames
Codec ID : V_MPEG4/ISO/AVC
Duration : 22 min 40 s
Bit rate mode : Variable
Bit rate : 5 916 kb/s
Maximum bit rate : 6 500 kb/s
Width : 1 920 pixels
Height : 1 080 pixels
Display aspect ratio : 16:9
Frame rate mode : Constant
Frame rate : 50.000 FPS
Standard : PAL
Color space : YUV
Chroma subsampling : 4:2:0
Bit depth : 8 bits
Scan type : Progressive
Bits/(Pixel*Frame) : 0.057
Stream size : 960 MiB (96%)
Default : Yes
Forced : No
Color range : Limited
Color primaries : BT.709
Transfer characteristics : BT.709
Matrix coefficients : BT.709

Audio
ID : 2
Format : AAC LC
Format/Info : Advanced Audio Codec Low Complexity
Codec ID : A_AAC-2
Duration : 22 min 40 s
Bit rate : 254 kb/s
Channel(s) : 2 channels
Channel layout : L R
Sampling rate : 32.0 kHz
Frame rate : 31.250 FPS (1024 SPF)
Compression mode : Lossy
Delay relative to video : 22 ms
Stream size : 41.2 MiB (4%)
Default : Yes
Forced : No

e1941946145252ccb74d3d3163e21aa3.jpg
e5a8ebfee5e9d573a2aa498e49240549.jpg
3a5ee1944cc474a15f42f513313c56c4.jpg
581856c604b49cfeafd9b949dd0f3e9a.jpg
a47b8b77f6d233284ad8d0f4cdd5341d.jpg
144d88f2aa7795c297775a3585189d56.jpg

Cricket.2019.West.Indies.V.India.3rd.ODI.1080p (1)-001.mkv – 1000.2 MB
Cricket.2019.West.Indies.V.India.3rd.ODI.1080p (1)-002.mkv – 1000.9 MB
Cricket.2019.West.Indies.V.India.3rd.ODI.1080p (1)-003.mkv – 1000.4 MB
Cricket.2019.West.Indies.V.India.3rd.ODI.1080p (1)-004.mkv – 1000.3 MB
Cricket.2019.West.Indies.V.India.3rd.ODI.1080p (1)-005.mkv – 1000.3 MB
Cricket.2019.West.Indies.V.India.3rd.ODI.1080p (1)-006.mkv – 1000.3 MB
Cricket.2019.West.Indies.V.India.3rd.ODI.1080p (1)-007.mkv – 1000.1 MB
Cricket.2019.West.Indies.V.India.3rd.ODI.1080p (1)-008.mkv – 1001.3 MB
Cricket.2019.West.Indies.V.India.3rd.ODI.1080p (1)-009.mkv – 1000.8 MB
Cricket.2019.West.Indies.V.India.3rd.ODI.1080p (1)-010.mkv – 1000.8 MB
Cricket.2019.West.Indies.V.India.3rd.ODI.1080p (1)-011.mkv – 1000.6 MB
Cricket.2019.West.Indies.V.India.3rd.ODI.1080p (1)-012.mkv – 1001.0 MB
Cricket.2019.West.Indies.V.India.3rd.ODI.1080p (1)-013.mkv – 1001.7 MB
Cricket.2019.West.Indies.V.India.3rd.ODI.1080p (1)-014.mkv – 1001.2 MB
Cricket.2019.West.Indies.V.India.3rd.ODI.1080p (1)-015.mkv – 1000.3 MB
Cricket.2019.West.Indies.V.India.3rd.ODI.1080p (1)-016.mkv – 1000.1 MB
Cricket.2019.West.Indies.V.India.3rd.ODI.1080p (1)-017.mkv – 1001.5 MB
Cricket.2019.West.Indies.V.India.3rd.ODI.1080p (1)-018.mkv – 1000.8 MB
Cricket.2019.West.Indies.V.India.3rd.ODI.1080p (1)-019.mkv – 1000.6 MB
Cricket.2019.West.Indies.V.India.3rd.ODI.1080p (1)-020.mkv – 1001.5 MB
Cricket.2019.West.Indies.V.India.3rd.ODI.1080p (1)-021.mkv – 1000.5 MB
Cricket.2019.West.Indies.V.India.3rd.ODI.1080p (1)-022.mkv – 1000.4 MB
Cricket.2019.West.Indies.V.India.3rd.ODI.1080p (1)-023.mkv – 872.3 MB

0 0 vote
Article Rating
Subscribe
Notify of
guest
1 Comment
Oldest
Newest Most Voted
Inline Feedbacks
View all comments
Bikash
Bikash
1 year ago

Thanks a lot…