Coolie No. 1 (1995) (MUSIC VIDEOS ALBUM) 1080p WebHD AVC DDP 2.0 By-DusIcTv

Coolie No. 1 (1995) (MUSIC VIDEOS ALBUM) 1080p WebHD AVC DDP 2.0 By-DusIcTv

xxxxxxxxxxxxxxxxxxxxxxxxxxxxxxxxxxxxxxxxxxxxxxxxxxxxxxxxxxxxxxxxxxxxxxxxxxxxxxxxxxxxxxxxxxxxxxxxxxx
Coolie No. 1 (1995) (MUSIC VIDEOS ALBUM) 1080p WebHD AVC DDP 2.0 By-DusIcTv
xxxxxxxxxxxxxxxxxxxxxxxxxxxxxxxxxxxxxxxxxxxxxxxxxxxxxxxxxxxxxxxxxxxxxxxxxxxxxxxxxxxxxxxxxxxxxxxxxxx

:details:

Format : Matroska
Format version : Version 4
File size : 1.83 GB
Overall bit rate : 8 208 kb/s

Writing application : mkvmerge v36.0.0 (‘Is That Jazz?’) 32-bit
Writing library : libebml v1.3.9 + libmatroska v1.5.2

Video
ID : 1
Format : AVC
Format/Info : Advanced Video Codec
Format profile : [email protected]
Format settings : CABAC / 4 Ref Frames
Format settings, CABAC : Yes
Format settings, Reference frames : 4 frames
Codec ID : V_MPEG4/ISO/AVC
Bit rate : 7 982 kb/s
Width : 1 920 pixels
Height : 816 pixels
Display aspect ratio : 2.35:1
Frame rate mode : Constant
Frame rate : 25.000 FPS
Color space : YUV
Chroma subsampling : 4:2:0
Bit depth : 8 bits
Scan type : Progressive
Bits/(Pixel*Frame) : 0.204
Stream size : 310 MiB (97%)
Default : Yes
Forced : No

Audio
ID : 2
Format : E-AC-3
Format/Info : Enhanced AC-3
Commercial name : Dolby Digital Plus
Codec ID : A_EAC3
Bit rate mode : Constant
Bit rate : 224 kb/s
Channel(s) : 2 channels
Channel layout : L R
Sampling rate : 48.0 kHz
Frame rate : 31.250 FPS (1536 SPF)
Compression mode : Lossy
Delay relative to video : 8 ms
Stream size : 8.71 MiB (3%)
Language : Hindi
Service kind : Complete Main
Default : Yes
Forced : No

:screens:











:download2:
01-Coolie No. 1 (Title Song) [By-DusIcTv].mkv   262.64 MB

https://thefileslocker.com/ko0amn1o50z7.html

02-Aa Jaana Aa Jaana [By-DusIcTv].mkv   319.00 MB

https://thefileslocker.com/st4kso19e8eq.html

03-Jeth Ki Dopahri Mein [By-DusIcTv].mkv   270.07 MB

https://thefileslocker.com/xsiynmf5k7h9.html

04-Tere Pyar Mein Dil Deewana [By-DusIcTv].mkv   250.54 MB

https://thefileslocker.com/krxn4r5711hr.html

05-Main To Raste Se Jaa Raha Tha [By-DusIcTv].mkv   327.47 MB

https://thefileslocker.com/g30pl8xkcjcj.html

06-Husn Hai Suhana [By-DusIcTv].mkv   337.26 MB

https://thefileslocker.com/4uifaq6n02vy.html

07-All Mix Songs (End Roll) [By-DusIcTv].mkv   110.05 MB

https://thefileslocker.com/zzo0d7m8y82w.html

https://thefileslocker.com/zi39hbt2nsm1.html
https://uploader.link/f/1z7s0k-npv3qczfv4k39
https://uptobox.com/r4lf84dkgl2l

0 0 vote
Article Rating
Subscribe
Notify of
guest
0 Comments
Inline Feedbacks
View all comments