Chucky: The Complete Collection (1988-2019) 1080p BD ReMuX Collection-114GB

Amazon.com: Chucky: The Complete Collection [Blu-ray]: Catherine ...

Format : Matroska
Format version : Version 4
Duration : 1 h 28 min
Overall bit rate mode : Variable
Overall bit rate : 28.2 Mb/s
Encoded date : UTC 2020-05-15 06:52:13
Writing application : mkvmerge v46.0.0 (‘No Deeper Escape’) 64-bit
Writing library : libebml v1.3.10 + libmatroska v1.5.2

Video
ID : 1
Format : AVC
Format/Info : Advanced Video Codec
Format profile : [email protected]
Format settings : CABAC / 4 Ref Frames
Format settings, CABAC : Yes
Format settings, Reference frames : 4 frames
Codec ID : V_MPEG4/ISO/AVC
Duration : 1 h 28 min
Bit rate mode : Variable
Bit rate : 26.0 Mb/s
Maximum bit rate : 35.0 Mb/s
Width : 1 920 pixels
Height : 1 080 pixels
Display aspect ratio : 16:9
Frame rate mode : Constant
Frame rate : 23.976 (24000/1001) FPS
Standard : NTSC
Color space : YUV
Chroma subsampling : 4:2:0
Bit depth : 8 bits
Scan type : Progressive
Bits/(Pixel*Frame) : 0.523
Stream size : 16.1 GiB (92%)
Default : Yes
Forced : No
Color range : Limited
Color primaries : BT.709
Transfer characteristics : BT.709
Matrix coefficients : BT.709

Audio
ID : 2
Format : DTS XLL
Format/Info : Digital Theater Systems
Commercial name : DTS-HD Master Audio
Codec ID : A_DTS
Duration : 1 h 28 min
Bit rate mode : Variable
Bit rate : 2 262 kb/s
Channel(s) : 6 channels
Channel layout : C L R Ls Rs LFE
Sampling rate : 48.0 kHz
Frame rate : 93.750 FPS (512 SPF)
Bit depth : 16 bits
Compression mode : Lossless
Stream size : 1.40 GiB (8%)
Language : English
Default : Yes
Forced : No

Text
ID : 3
Format : PGS
Muxing mode : zlib
Codec ID : S_HDMV/PGS
Codec ID/Info : Picture based subtitle format used on BDs/HD-DVDs
Duration : 1 h 22 min
Bit rate : 21.9 kb/s
Count of elements : 1704
Stream size : 13.0 MiB (0%)
Language : English
Default : Yes
Forced : No


vlcsnap-2020-05-14-22h01m00s015vlcsnap-2020-05-14-22h01m08s619vlcsnap-2020-05-14-22h02m13s370vlcsnap-2020-05-14-22h02m23s326vlcsnap-2020-05-14-22h03m04s977vlcsnap-2020-05-14-22h03m14s817vlcsnap-2020-05-14-22h03m39s971vlcsnap-2020-05-14-22h03m44s279vlcsnap-2020-05-14-22h03m59s196vlcsnap-2020-05-14-22h04m17s736vlcsnap-2020-05-14-22h04m21s744vlcsnap-2020-05-14-22h04m26s070vlcsnap-2020-05-14-22h04m31s153vlcsnap-2020-05-14-22h04m35s393vlcsnap-2020-05-15-12h16m41s166vlcsnap-2020-05-15-12h16m45s609vlcsnap-2020-05-15-12h16m51s673vlcsnap-2020-05-15-12h17m03s101vlcsnap-2020-05-15-15h16m11s537vlcsnap-2020-05-15-15h16m15s306vlcsnap-2020-05-15-15h16m28s466vlcsnap-2020-05-15-15h16m32s934
Gdrive Single Links+Download And Alternative Links Added

1-Child’s Play 1988 1080p Bd Remux(11GB)
https://bit.ly/2WxEPK2

 2-Child’s Play 2 1990 Bd Remux(11GB)
https://bit.ly/2Z8CTtg

3-Child’s Play 3 1991 Bd Remux(7GB)
https://bit.ly/2yPIxGc

4-Bride of Chucky 1998 Bd Remux(17GB)
https://bit.ly/2z2ESoe

5-Seed of Chucky 2004 Bd Remux(14GB)
https://bit.ly/2AonEC6

6-Curse of Chucky 2013 Bd Remux(13Gb)
https://bit.ly/35ZftrR

7-Cult of Chucky 2017 Bd Remux(19GB)
https://bit.ly/3647KZj

8-Child’s Play 2019 Bd Remux(22GB)
https://bit.ly/360IGm8

7-up.net Single Link+Download

1-Child’s Play 1988 1080p Bd Remux(11GB)
https://bit.ly/3dKsFDB

2- Child’s Play 2 1990 Bd Remux(11GB)
https://bit.ly/3cz9LiV

3-Child’s Play 3 1991 Bd Remux(7GB)
https://bit.ly/3dOvm77

4-Bride of Chucky 1998 Bd Remux(17GB)
https://bit.ly/3bBzgyF

5-Seed of Chucky 2004 Bd Remux(14GB)
https://bit.ly/3fRDci9

6-Curse of Chucky 2013 Bd Remux(13Gb)
https://bit.ly/2T8OViz

7-Cult of Chucky 2017 Bd Remux(19GB)
https://bit.ly/3dKuwIz

8-Child’s Play 2019 Bd Remux(22GB)
https://bit.ly/3dL7e5h

0 0 vote
Article Rating
Subscribe
Notify of
guest
0 Comments
Inline Feedbacks
View all comments