Chintu.Ka.Birthday.2020.1080p.Zee5.WEB-DL.AAC.x264.Esub 850Mb


Format : Matroska
Format version : Version 4
File size : 840 MiB
Duration : 1 h 23 min
Overall bit rate mode : Variable
Overall bit rate : 1 410 kb/s
Writing application : mkvmerge v43.0.0 (‘The Quartermaster’) 64-bit
Writing library : libebml v1.3.10 + libmatroska v1.5.2

Video
ID : 2
Format : AVC
Format/Info : Advanced Video Codec
Format profile : [email protected]
Format settings : CABAC / 4 Ref Frames
Format settings, CABAC : Yes
Format settings, Reference frames : 4 frames
Format settings, GOP : M=5, N=50
Codec ID : V_MPEG4/ISO/AVC
Duration : 1 h 23 min
Bit rate mode : Variable
Bit rate : 1 218 kb/s
Maximum bit rate : 2 700 kb/s
Width : 1 920 pixels
Height : 1 080 pixels
Display aspect ratio : 16:9
Frame rate mode : Constant
Frame rate : 25.000 FPS
Color space : YUV
Chroma subsampling : 4:2:0
Bit depth : 8 bits
Scan type : Progressive
Bits/(Pixel*Frame) : 0.023
Stream size : 726 MiB (86%)
Title : BonsaiHD.Fun
Default : Yes
Forced : No
Color range : Limited
Color primaries : BT.709
Transfer characteristics : BT.709
Matrix coefficients : BT.709

Audio
ID : 3
Format : AAC LC
Format/Info : Advanced Audio Codec Low Complexity
Codec ID : A_AAC-2
Duration : 1 h 23 min
Bit rate : 192 kb/s
Channel(s) : 2 channels
Channel layout : L R
Sampling rate : 48.0 kHz
Frame rate : 46.875 FPS (1024 SPF)
Compression mode : Lossy
Delay relative to video : -33 ms
Stream size : 113 MiB (13%)
Language : English
Default : Yes
Forced : No

Text #1
ID : 1
Format : UTF-8
Codec ID : S_TEXT/UTF8
Codec ID/Info : UTF-8 Plain Text
Duration : 1 h 15 min
Bit rate : 53 b/s
Count of elements : 869
Stream size : 29.3 KiB (0%)
Title : BonsaiHD.Fun
Default : No
Forced : No

Text #2
ID : 4
Format : ASS
Codec ID : S_TEXT/ASS
Codec ID/Info : Advanced Sub Station Alpha
Duration : 43 min 6 s
Bit rate : 0 b/s
Count of elements : 3
Compression mode : Lossless
Stream size : 195 Bytes (0%)
Default : Yes
Forced : Yes

vlcsnap 00001
Gdrive Single Link+Download
https://bit.ly/3cyVtxY

Zupload.me(use vpn download with idm)
https://bit.ly/2MBvxH7

0 0 vote
Article Rating
Subscribe
Notify of
guest
0 Comments
Inline Feedbacks
View all comments