Chernobyl.S01-Complete 1080p.10bit.WEBRip.6CH.x265.HEVC-PSA-3.8GB

Amazon.com: Watch Chernobyl - Season 1 | Prime Video

Format : Matroska
Format version : Version 4
File size : 744 MiB
Duration : 1 h 3 min
Overall bit rate : 1 645 kb/s
Chernobyl.S01E01.1.23.45.1080p.10bit.WEBRip.6CH.x265.HEVC-PSA
Writing application : mkvmerge v33.1.0 (‘Primrose’) 64-bit
Writing library : libebml v1.3.7 + libmatroska v1.5.0

Video
ID : 1
Format : HEVC
Format/Info : High Efficiency Video Coding
Format profile : Main [email protected]@Main
Codec ID : V_MPEGH/ISO/HEVC
Duration : 1 h 3 min
Bit rate : 1 439 kb/s
Width : 1 920 pixels
Height : 960 pixels
Display aspect ratio : 2.000
Frame rate mode : Constant
Frame rate : 23.976 (24000/1001) FPS
Color space : YUV
Chroma subsampling : 4:2:0
Bit depth : 10 bits
Bits/(Pixel*Frame) : 0.033
Stream size : 651 MiB (87%)
Default : Yes
Forced : No

Audio
ID : 2
Format : AAC LC SBR
Format/Info : Advanced Audio Codec Low Complexity with Spectral Band Replication
Commercial name : HE-AAC
Format settings : Explicit
Codec ID : A_AAC-2
Duration : 1 h 3 min
Bit rate : 205 kb/s
Channel(s) : 6 channels
Channel layout : C L R Ls Rs LFE
Sampling rate : 48.0 kHz
Frame rate : 23.438 FPS (2048 SPF)
Compression mode : Lossy
Delay relative to video : 23 ms
Stream size : 92.6 MiB (12%)
Language : English
Default : Yes
Forced : No

Text
ID : 3
Format : UTF-8
Codec ID : S_TEXT/UTF8
Codec ID/Info : UTF-8 Plain Text
Duration : 1 h 3 min
Bit rate : 49 b/s
Count of elements : 742
Stream size : 22.9 KiB (0%)
Language : English
Default : Yes
Forced : No

vlcsnap-2020-06-09-04h33m40s443vlcsnap-2020-06-09-04h33m54s668vlcsnap-2020-06-09-04h34m01s631vlcsnap-2020-06-09-04h34m06s641vlcsnap-2020-06-09-04h34m16s686vlcsnap-2020-06-09-04h34m25s191vlcsnap-2020-06-09-04h34m37s307vlcsnap-2020-06-09-04h34m53s792vlcsnap-2020-06-09-04h35m11s199
Gdrive Multiple Single Link+Download

1.Chernobyl.S01 E01 1080p.10bit.WEBRip.6CH.x265.HEVC-PSA
https://bit.ly/30ARONR

2.Chernobyl.S01E02.Please.Remain.Calm.1080p.10bit.WEBRip.6CH.x265.HEVC-PSA
https://bit.ly/3dL9ZUw

3.Chernobyl.S01E03.Open.Wide.O.Earth.1080p.10bit.WEBRip.6CH.x265.HEVC-PSA
https://bit.ly/2YeWBBH

4.Chernobyl.S01E04.The.Happiness.of.All.Mankind.1080p.10bit.WEBRip.6CH.x265.HEVC-PSA
https://bit.ly/3f9UJ43

5.Chernobyl.S01E05.Vichnaya.Pamyat.1080p.10bit.WEBRip.6CH.x265.HEVC-PSA
https://bit.ly/2XMs5Qp

Alternative Single Link+Same As Speed Like Gdrive

1.Chernobyl.S01 E01 1080p.10bit.WEBRip.6CH.x265.HEVC-PSA
https://bit.ly/3cLPi9G

2.Chernobyl.S01E02.Please.Remain.Calm.1080p.10bit.WEBRip.6CH.x265.HEVC-PSA
https://bit.ly/2Yk6ePh

3.Chernobyl.S01E03.Open.Wide.O.Earth.1080p.10bit.WEBRip.6CH.x265.HEVC-PSA
https://bit.ly/2XOBPKd

4.Chernobyl.S01E04.The.Happiness.of.All.Mankind.1080p.10bit.WEBRip.6CH.x265.HEVC-PSA
https://bit.ly/2A9QB5j

5.Chernobyl.S01E05.Vichnaya.Pamyat.1080p.10bit.WEBRip.6CH.x265.HEVC-PSA
https://bit.ly/2YiDrdX

0 0 vote
Article Rating
Subscribe
Notify of
guest
0 Comments
Inline Feedbacks
View all comments