Chalte Chalte.2003.Hindi.1080p.BluRay.x264.AC3-5.1.-.Hon3yHD- 9Gb

:details:

SOURCE:– BD25 @DRs

Format                                   : Matroska
Format version                           : Version 2
File size                                : 9.60 GiB
Duration                                 : 2 h 45 min
Overall bit rate mode                    : Variable
Overall bit rate                         : 8 289 kb/s

Video
ID                                       : 1
Format                                   : AVC
Format/Info                              : Advanced Video Codec
Format profile                           : [email protected]
Format settings                          : CABAC / 4 Ref Frames
Format settings, CABAC                   : Yes
Format settings, RefFrames               : 4 frames
Codec ID                                 : V_MPEG4/ISO/AVC
Duration                                 : 2 h 45 min
Bit rate mode                            : Variable
Bit rate                                 : 7 836 kb/s
Maximum bit rate                         : 62.5 Mb/s
Width                                    : 1 920 pixels
Height                                   : 816 pixels
Display aspect ratio                     : 2.35:1
Frame rate mode                          : Constant
Frame rate                               : 23.976 (24000/1001) FPS
Color space                              : YUV
Chroma subsampling                       : 4:2:0
Bit depth                                : 8 bits
Scan type                                : Progressive
Bits/(Pixel*Frame)                       : 0.209
Stream size                              : 9.07 GiB (95%)

Audio
ID                                       : 2
Format                                   : AC-3
Format/Info                              : Audio Coding 3
Commercial name                          : Dolby Digital
Codec ID                                 : A_AC3
Duration                                 : 2 h 45 min
Bit rate mode                            : Constant
Bit rate                                 : 448 kb/s
Channel(s)                               : 6 channels
Channel layout                           : L R C LFE Ls Rs
Sampling rate                            : 48.0 kHz
Frame rate                               : 31.250 FPS (1536 SPF)
Bit depth                                : 16 bits
Compression mode                         : Lossy
Stream size                              : 531 MiB (5%)
Service kind                             : Complete Main
Default                                  : Yes
Forced                                   : No

Text #1
ID                                       : 3
Format                                   : PGS
Muxing mode                              : zlib
Codec ID                                 : S_HDMV/PGS
Codec ID/Info  : Picture based subtitle format used on BDs/HD-DVDs
Duration                                 : 2 h 43 min
Bit rate                                 : 17.3 kb/s
Count of elements                        : 3235
Stream size                              : 20.3 MiB (0%)
Language                                 : German
Default                                  : Yes
Forced                                   : Yes

Text #2
ID                                       : 4
Format                                   : PGS
Muxing mode                              : zlib
Codec ID                                 : S_HDMV/PGS
Codec ID/Info  : Picture based subtitle format used on BDs/HD-DVDs
Duration                                 : 2 h 40 min
Bit rate                                 : 1 709 b/s
Count of elements                        : 389
Stream size                              : 1.96 MiB (0%)
Language                                 : German
Default                                  : No
Forced                                   : No

:screens:

GDrive Link And Download

https://bit.ly/2vC9c7H

Uloz.to Single Link And Download

https://bit.ly/33COpxd

0 0 vote
Article Rating
Subscribe
Notify of
guest
0 Comments
Inline Feedbacks
View all comments