Chaand Kaa Tukdaa (1994) Hindi 1080p Untouched HDTV AVC {Music Video} ESuBS By-DusIcTv

Chaand Kaa Tukdaa (1994) Hindi 1080p Untouched  HDTV AVC {Music Video} ESuBS By-DusIcTv

:details:

Format                                   : Matroska
Format version                           : Version 4
File size                                : 1.25 GB
Overall bit rate mode                    : Variable
Overall bit rate                         : 3 575 kb/s
Encoded date                             : UTC 2019-06-18 12:22:44
Writing application     : mkvmerge v34.0.0 (‘Sight and Seen’) 64-bit
Writing library    : libebml v1.3.7 + libmatroska v1.5.0

Video
ID                                       : 1
Format                                   : AVC
Format/Info                              : Advanced Video Codec
Format profile                           : [email protected]
Format settings                          : CABAC / 4 Ref Frames
Format settings, CABAC                   : Yes
Format settings, Reference frames        : 4 frames
Codec ID                                 : V_MPEG4/ISO/AVC
Bit rate mode                            : Variable
Bit rate                                 : 3 500 kb/s
Width                                    : 1 920 pixels
Height                                   : 1 080 pixels
Display aspect ratio                     : 16:9
Frame rate mode                          : Constant
Frame rate                               : 25.000 FPS
Standard                                 : Component
Color space                              : YUV
Chroma subsampling                       : 4:2:0
Bit depth                                : 8 bits
Scan type                                : Progressive
Bits/(Pixel*Frame)                       : 0.068
Stream size                              : 133 MiB (97%)
Title                                    : DusIcTv
Default                                  : Yes
Forced                                   : No
Color range                              : Limited
Color primaries                          : BT.709
Transfer characteristics                 : BT.709
Matrix coefficients                      : BT.709

Audio
ID                                       : 2
Format                                   : AAC LC
Format/Info                              : Advanced Audio Codec
Codec ID                                 : A_AAC-2
Bit rate                                 : 93.4 kb/s
Channel(s)                               : 2 channels
Channel layout                           : L R
Sampling rate                            : 48.0 kHz
Frame rate                               : 46.875 FPS (1024 SPF)
Compression mode                         : Lossy
Stream size                              : 3.58 MiB (3%)
Title                                    : DusIcTv
Default                                  : Yes
Forced                                   : No

:screens:










:download2:
01-Aaja Deewane Aaja [By-DusIcTv].mkv   136.91 MB

https://thefileslocker.com/3jic42vfdhl8.html

02-Aaj Radha Ko Shayam Yaad Aa Gaya [By-DusIcTv].mkv   178.17 MB

https://thefileslocker.com/c6u3ky2owj1p.html

03-Melody Music [By-DusIcTv].mkv   28.69 MB

https://thefileslocker.com/qslr12mczqza.html

04-Tu Ladka Hai London Ka [By-DusIcTv].mkv   131.34 MB

https://thefileslocker.com/14otn2t3bjyx.html

05-I Am Very Very Sorry [By-DusIcTv].mkv   121.06 MB

https://thefileslocker.com/378fyc7t5szf.html

06-Dil Deewana Dhoond [By-DusIcTv].mkv   180.57 MB

https://thefileslocker.com/y5sp1x0aac53.html

07-Dance Music [By-DusIcTv].mkv   85.91 MB

https://thefileslocker.com/qpm3d3efrkn7.html

08-Jo Peete Nahin Sharab [By-DusIcTv].mkv   118.16 MB

https://thefileslocker.com/yvdpqs0dyi3e.html

09-Darwaja Khula [By-DusIcTv].mkv   144.77 MB

https://thefileslocker.com/v9tyi7xilmnw.html

10-Tu Lage Chaand Ka Tukda [By-DusIcTv].mkv   155.23 MB

https://thefileslocker.com/irid7rdd3zpm.html

https://thefileslocker.com/qf1i2wwitkds.html
https://desiupload.to/f/8fvgaf-ocdi6phb3wqzb

0 0 vote
Article Rating
Subscribe
Notify of
guest
2 Comments
Oldest
Newest Most Voted
Inline Feedbacks
View all comments
lethal111
lethal111
1 year ago

thanks sir

plz post my favourite movie Saajan 1991 BD50 untouched bluray movie hindi

and please
Hum apke hain kaun 1994 BD50 untouched bluray movie hindi
……please

Daringbaaz D
Daringbaaz D
1 year ago