Chaahat (1996) Hindi 1080p Untouched WebHD AVC DD Plus 2.0 {Music Video} ESuBS

Format : Matroska
Format version : Version 4
File size : 1.24 GB
Overall bit rate mode : Variable
Overall bit rate : 1 957 kb/s
Writing library : libebml v1.3.7 + libmatroska v1.5.0

Video
ID : 1
Format : AVC
Format/Info : Advanced Video Codec
Format profile : [email protected]
Format settings : CABAC / 4 Ref Frames
Format settings, CABAC : Yes
Format settings, RefFrames : 4 frames
Codec ID : V_MPEG4/ISO/AVC
Bit rate mode : Variable
Bit rate : 1 827 kb/s
Maximum bit rate : 20.0 Mb/s
Width : 1 920 pixels
Height : 1 080 pixels
Display aspect ratio : 16:9
Frame rate mode : Constant
Frame rate : 25.000 FPS
Color space : YUV
Chroma subsampling : 4:2:0
Bit depth : 8 bits
Scan type : Progressive
Bits/(Pixel*Frame) : 0.035
Stream size : 17.3 MiB (93%)
Default : Yes
Forced : No

Audio
ID : 2
Format : E-AC-3
Format/Info : Enhanced AC-3
Commercial name : Dolby Digital Plus
Codec ID : A_EAC3
Bit rate mode : Constant
Bit rate : 128 kb/s
Channel(s) : 2 channels
Channel layout : L R
Sampling rate : 48.0 kHz
Frame rate : 31.250 FPS (1536 SPF)
Compression mode : Lossy
Delay relative to video : 8 ms
Stream size : 1.21 MiB (7%)
Language : Hindi
Service kind : Complete Main
Default : Yes
Forced : No

01.Frist (Dhun) [DesiShare.org].mkv – 18.5 MB

02.Chaahat Na Hoti [DesiShare.org].mkv – 240.1 MB

03.Dil Ki Tanhai Ko [DesiShare.org].mkv – 254.0 MB

04.Daddy Cool [DesiShare.org].mkv – 165.4 MB

05.Nahi Lagta [DesiShare.org].mkv – 187.0 MB

06.Dil Ki Tanhai Ko (2nd) [DesiShare.org].mkv – 75.1 MB

07.Nahin Jeena Yaar Bina [DesiShare.org].mkv – 198.6 MB

08.Daddy Cool (2nd) [DesiShare.org].mkv – 115.0 MB

9.Chaahat Na Hoti (End) [DesiShare.org].mkv – 23.7 MB

0 0 vote
Article Rating
Subscribe
Notify of
guest
2 Comments
Oldest
Newest Most Voted
Inline Feedbacks
View all comments
Ragun
Ragun
1 year ago

Can you upload few Telugu BD50 video songs