CARS 3 (2017) 1080p BDRip Dual Audio Org BD {Hindi+Eng.6Ch} -~{[email protected]}

Format : Matroska
Format version : Version 4
File size : 3.66 GiB
Duration : 1 h 42 min
Overall bit rate mode : Variable
Overall bit rate : 5 110 kb/s
Movie name : .-~{[email protected]}~-.
Encoded date : UTC 2018-01-05 03:41:59
Writing application : mkvmerge v11.0.0 (‘Alive’) 64bit
Writing library : libebml v1.3.4 + libmatroska v1.4.5

Video
ID : 1
Format : AVC
Format/Info : Advanced Video Codec
Format profile : [email protected]
Format settings : CABAC / 5 Ref Frames
Format settings, CABAC : Yes
Format settings, ReFrames : 5 frames
Codec ID : V_MPEG4/ISO/AVC
Duration : 1 h 42 min
Bit rate mode : Variable
Bit rate : 3 789 kb/s
Maximum bit rate : 62.5 Mb/s
Width : 1 920 pixels
Height : 804 pixels
Display aspect ratio : 2.40:1
Frame rate mode : Constant
Frame rate : 23.976 (24000/1001) FPS
Color space : YUV
Chroma subsampling : 4:2:0
Bit depth : 8 bits
Scan type : Progressive
Bits/(Pixel*Frame) : 0.102
Stream size : 2.71 GiB (74%)
Title : CARS.3.(2017).1080p.BDRip.Dual.Audio.Org.BD.{Hindi+Eng.6Ch}.-~{[email protected]}~-.
Writing library : x264 core 130 r2273 b3065e6

Language : Hindi
Default : Yes
Forced : No

Audio #1
ID : 2
Format : AC-3
Format/Info : Audio Coding 3
Commercial name : Dolby Digital
Codec ID : A_AC3
Duration : 1 h 42 min
Bit rate mode : Constant
Bit rate : 640 kb/s
Channel(s) : 6 channels
Channel layout : L R C LFE Ls Rs
Sampling rate : 48.0 kHz
Frame rate : 31.250 FPS (1536 SPF)
Bit depth : 16 bits
Compression mode : Lossy
Stream size : 469 MiB (13%)
Title : RiPPER~ L3GEND~ ORG BD DOLBY DIGITAL [email protected]~
Language : Hindi
Service kind : Complete Main
Default : Yes
Forced : No

Audio #2
ID : 3
Format : AC-3
Format/Info : Audio Coding 3
Commercial name : Dolby Digital
Codec ID : A_AC3
Duration : 1 h 42 min
Bit rate mode : Constant
Bit rate : 640 kb/s
Channel(s) : 6 channels
Channel layout : L R C LFE Ls Rs
Sampling rate : 48.0 kHz
Frame rate : 31.250 FPS (1536 SPF)
Bit depth : 16 bits
Compression mode : Lossy
Stream size : 469 MiB (13%)
Title : RiPPER~ L3GEND~ ORG BD DOLBY DIGITAL [email protected]~
Language : English
Service kind : Complete Main
Default : No
Forced : No

Text #1
ID : 4
Format : PGS
Muxing mode : zlib
Codec ID : S_HDMV/PGS
Codec ID/Info : Picture based subtitle format used on BDs/HD-DVDs
Duration : 1 h 41 min
Bit rate : 21.6 kb/s
Count of elements : 4004
Stream size : 15.7 MiB (0%)
Title : L3GEND ~Director’s & Producer’s Commentary Presentation Graphics Subtitles~
Language : English
Default : No
Forced : No

Text #2
ID : 5
Format : PGS
Muxing mode : zlib
Codec ID : S_HDMV/PGS
Codec ID/Info : Picture based subtitle format used on BDs/HD-DVDs
Duration : 1 h 40 min
Bit rate : 18.2 kb/s
Count of elements : 3860
Stream size : 13.1 MiB (0%)
Title : L3GEND ~Presentation Graphics Subtitles~
Language : English
Default : Yes
Forced : No

9f669b3403d8cd46ca63281060544a0a.jpg
ec35ab697db65713a40c14238ecd6757.jpg
18e1387d3361c53cf990008238e609ad.jpg
3060503ac1d33d612c22de8b9b3312c8.jpg
fa0e081d31928aaa7f0f6cab093ba4ca.jpg
fcc3f9369cd8900a83992acd97c68f73.jpg

G-Drive | The File Locker

0 0 vote
Article Rating
Subscribe
Notify of
guest
0 Comments
Inline Feedbacks
View all comments