Captain Marvel (2019) 1080p BDRip Original Audios [ Tamil + Telugu + Hindi + Eng] x264 ESubs

Format : Matroska
Format version : Version 4
File size : 2.13 GiB
Duration : 2 h 3 min
Overall bit rate : 2 463 kb/s
Movie name : [DesiShare.org]
Encoded date : UTC 2019-08-23 16:13:47
Writing application : mkvmerge v29.0.0 (‘Like It Or Not’) 32-bit
Writing library : libebml v1.3.6 + libmatroska v1.4.9

Video
ID : 1
Format : AVC
Format/Info : Advanced Video Codec
Format profile : [email protected]
Format settings : CABAC / 4 Ref Frames
Format settings, CABAC : Yes
Format settings, ReFrames : 4 frames
Codec ID : V_MPEG4/ISO/AVC
Duration : 2 h 3 min
Bit rate : 2 150 kb/s
Width : 1 920 pixels
Height : 800 pixels
Display aspect ratio : 2.40:1
Frame rate mode : Constant
Frame rate : 23.976 (24000/1001) FPS
Color space : YUV
Chroma subsampling : 4:2:0
Bit depth : 8 bits
Scan type : Progressive
Bits/(Pixel*Frame) : 0.058
Stream size : 1.86 GiB (87%)
Title : [DesiShare.org]
Writing library : x264 core 157

Forced : No

Audio #1
ID : 2
Format : MPEG Audio
Format version : Version 1
Format profile : Layer 3
Format settings : Joint stereo / MS Stereo
Codec ID : A_MPEG/L3
Codec ID/Hint : MP3
Duration : 2 h 3 min
Bit rate mode : Constant
Bit rate : 128 kb/s
Channel(s) : 2 channels
Sampling rate : 44.1 kHz
Frame rate : 38.281 FPS (1152 SPF)
Compression mode : Lossy
Stream size : 113 MiB (5%)
Title : [DesiShare.org]
Language : Tamil
Default : Yes
Forced : No

Audio #2
ID : 3
Format : MPEG Audio
Format version : Version 2
Format profile : Layer 3
Format settings : Joint stereo / MS Stereo
Codec ID : A_MPEG/L3
Codec ID/Hint : MP3
Duration : 2 h 3 min
Bit rate mode : Constant
Bit rate : 64.0 kb/s
Channel(s) : 2 channels
Sampling rate : 24.0 kHz
Frame rate : 41.667 FPS (576 SPF)
Compression mode : Lossy
Stream size : 56.8 MiB (3%)
Title : [DesiShare.org]
Writing library : LAME3.99r
Encoding settings : -m j -V 4 -q 0 -lowpass 11 -b 64
Language : Telugu
Default : No
Forced : No

Audio #3
ID : 4
Format : MPEG Audio
Format version : Version 2
Format profile : Layer 3
Format settings : Joint stereo / MS Stereo
Codec ID : A_MPEG/L3
Codec ID/Hint : MP3
Duration : 2 h 3 min
Bit rate mode : Constant
Bit rate : 64.0 kb/s
Channel(s) : 2 channels
Sampling rate : 24.0 kHz
Frame rate : 41.667 FPS (576 SPF)
Compression mode : Lossy
Stream size : 56.8 MiB (3%)
Title : [DesiShare.org]
Writing library : LAME3.99r
Encoding settings : -m j -V 4 -q 0 -lowpass 11 -b 64
Language : Hindi
Default : No
Forced : No

Audio #4
ID : 5
Format : AAC LC SBR
Format/Info : Advanced Audio Codec Low Complexity with Spectral Band Replication
Commercial name : HE-AAC
Format settings : Explicit
Codec ID : A_AAC-2
Duration : 2 h 3 min
Bit rate : 60.3 kb/s
Channel(s) : 2 channels
Channel layout : L R
Sampling rate : 48.0 kHz
Frame rate : 23.438 FPS (2048 SPF)
Compression mode : Lossy
Stream size : 53.3 MiB (2%)
Title : [DesiShare.org]
Language : English
Default : No
Forced : No

Text
ID : 6
Format : UTF-8
Codec ID : S_TEXT/UTF8
Codec ID/Info : UTF-8 Plain Text
Duration : 2 h 2 min
Bit rate : 49 b/s
Count of elements : 1665
Stream size : 44.2 KiB (0%)
Title : [DesiShare.org]
Language : English
Default : Yes
Forced : No

 

 

PLAY ONLINE

The File Locker Download {2.13 GB}

Quick Download {2.13GB} 

{ Direct } Download  Link {2.13 GB}

{ G-Drive } Download  Link {2.13 GB}

{ Mega – Drive } Download  Link {2.13 GB} 

{Media Fire } Download  Link {2.13 GB}

0 0 vote
Article Rating
Subscribe
Notify of
guest
0 Comments
Inline Feedbacks
View all comments