Bombay Velvet (2015) (MUSIC VIDEOS ALBUM) 1080p Blu-Ray Untouched BD50 DTS-HDMA 5.1 By-DusIcTv

General
ID : 1 (0x1)
Format : BDAV
Format/Info : Blu-ray Video
File size : 4.69 GB
Overall bit rate mode : Variable
Overall bit rate : 42.3 Mb/s
Maximum Overall bit rate : 35.5 Mb/s

Video
ID : 4113 (0x1011)
Menu ID : 1 (0x1)
Format : AVC
Format/Info : Advanced Video Codec
Format profile : [email protected]
Format settings : CABAC / 4 Ref Frames
Format settings, CABAC : Yes
Format settings, Reference frames : 4 frames
Codec ID : 27
Bit rate mode : Variable
Bit rate : 40.0 Mb/s
Maximum bit rate : 35.0 Mb/s
Width : 1 920 pixels
Height : 1 080 pixels
Display aspect ratio : 16:9
Frame rate : 24.000 FPS
Standard : NTSC
Color space : YUV
Chroma subsampling : 4:2:0
Bit depth : 8 bits
Scan type : Progressive
Bits/(Pixel*Frame) : 0.803
Stream size : 505 MiB (94%)
Color range : Limited
Color primaries : BT.709
Transfer characteristics : BT.709
Matrix coefficients : BT.709

Audio
ID : 4352 (0x1100)
Menu ID : 1 (0x1)
Format : AC-3
Format/Info : Audio Coding 3
Commercial name : Dolby Digital
Muxing mode : Stream extension
Codec ID : 131
Bit rate mode : Variable
Bit rate : 640 kb/s
Maximum bit rate : 7 860 kb/s
Channel(s) : 6 channels
Channel layout : L R C LFE Ls Rs
Sampling rate : 96.0 kHz / 48.0 kHz
Frame rate : 31.250 FPS (1536 SPF)
Compression mode : Lossy
Delay relative to video : -101 ms
Stream size : 8.12 MiB (2%)
Service kind : Complete Main

Text #1
ID : 4608 (0x1200)
Menu ID : 1 (0x1)
Format : PGS
Codec ID : 144

Text #2
ID : 4609 (0x1201)
Menu ID : 1 (0x1)
Format : PGS
Codec ID : 144

Zip Download G- Drive + The File Locker 

01-Aam Hindustani [By-DusIcTv].m2ts – 536.6 MB

02-Jata Kahan Hai [By-DusIcTv].m2ts – 1.0 GB

03-Behroopia [By-DusIcTv].m2ts – 1.0 GB

04-Naak Pe Gussa [By-DusIcTv].m2ts – 645.9 MB

05-Dhadaam Dhadaam [By-DusIcTv].m2ts – 1.5 GB

0 0 vote
Article Rating
Subscribe
Notify of
guest
0 Comments
Inline Feedbacks
View all comments