BOLLYWOOD 90s HDTV AAC 2.0 {Vol -1} By-DusIcTv | G- Drive | 17 GB |

xxxxxxxxxxxxxxxxxxxxxxxxxxxxxxxxxxxxxxxxxxxxxxxxxxxxxxxxxxxxxxxxxxxxxxxxxxxxxxxxxxxxxxxxxxxxxxxxxxx
BOLLYWOOD 90s HDTV AAC 2.0 {Vol -1} By-DusIcTv
xxxxxxxxxxxxxxxxxxxxxxxxxxxxxxxxxxxxxxxxxxxxxxxxxxxxxxxxxxxxxxxxxxxxxxxxxxxxxxxxxxxxxxxxxxxxxxxxxxx

General
Format : Matroska
Format version : Version 4
File size : 17.4 GB
Overall bit rate : 15.9 Mb/s
Encoded date : UTC 2019-12-07 00:08:26
Writing application : mkvmerge v41.0.0 (‘Smarra’) 64-bit
Writing library : libebml v1.3.9 + libmatroska v1.5.2

Video
ID : 2
Format : AVC
Format/Info : Advanced Video Codec
Format profile : [email protected]
Format settings : 1 Ref Frames
Format settings, CABAC : No
Format settings, Reference frames : 1 frame
Format settings, GOP : M=1, N=60
Codec ID : V_MPEG4/ISO/AVC
Bit rate : 15.7 Mb/s
Width : 1 920 pixels
Height : 1 088 pixels
Original height : 1 080 pixels
Display aspect ratio : 16:9
Original display aspect ratio : 16:9
Frame rate mode : Variable
Frame rate : 29.887 FPS
Original frame rate : 30.000 FPS
Color space : YUV
Chroma subsampling : 4:2:0
Bit depth : 8 bits
Scan type : Progressive
Bits/(Pixel*Frame) : 0.251
Stream size : 725 MiB (99%)
Language : English
Default : Yes
Forced : No

Audio
ID : 1
Format : AAC LC
Format/Info : Advanced Audio Codec Low Complexity
Codec ID : A_AAC-2
Bit rate : 192 kb/s
Channel(s) : 2 channels
Channel layout : L R
Sampling rate : 48.0 kHz
Frame rate : 46.875 FPS (1024 SPF)
Compression mode : Lossy
Delay relative to video : 5 ms
Stream size : 8.74 MiB (1%)
Language : Hindi
Default : Yes
Forced : No

King Official Hdtv Credit -Saurav Singh

G- Drive Zip Download 

https://sharer.pw/file/JIX60kniNPm

https://drive.klop.me/file/bc71e07a2a

01-Aaj Kal Ke Bacche – Jaise Karni Waise Bharni [By-DusIcTv].mkv – 211.6 MB

02-Aapke Aane Se [By-DusIcTv].mkv – 734.2 MB

03-Aashiqana Aalam [By-DusIcTv].mkv – 529.3 MB

04-Ameero Ki Shaam – Naam (1986) [By-DusIcTv].mkv – 644.4 MB

05-Azaad Aaya Re-Mr.Azaad [By-DusIcTv].mkv – 771.4 MB

06-Bombai-Swarg [By-DusIcTv].mkv – 733.7 MB

07-Bombay-Kroadh [By-DusIcTv].mkv – 603.1 MB

08-Buri Nazar Wale-Loafer [By-DusIcTv].mkv – 593.1 MB

09-Dekho Na – Fanna [By-DusIcTv].mkv – 593.5 MB

10-Ek Dil Hai [By-DusIcTv].mkv – 573.8 MB

11-Fir Se Apna Jalwa – (Don 2006) [By-DusIcTv].mkv – 677.6 MB

12-I Love Rupyaa – (Phir Heraa Pheri – 2006) [By-DusIcTv].mkv – 312.3 MB

13-Is Dil Main Kya Hai Sajan – Jab Pyar Kisi Se Hota He [By-DusIcTv].mkv – 120.7 MB

14-Is Dil Mein Kya Hai – Jab Pyaar Kisise Hota Hai [By-DusIcTv].mkv – 385.3 MB

15-Jeete Marte Jayenge – Waqt [By-DusIcTv].mkv – 514.4 MB

16-Jeth Ki Dophari-Coolie No.1 [By-DusIcTv].mkv – 493.3 MB

17-Jummaa Chumma De De – Female – (Hum 1991) [By-DusIcTv].mkv – 283.0 MB

18-Kisko Tha Pata – Aagneepath [By-DusIcTv].mkv – 721.1 MB

19-Ladki Hai Kyaa – (Laadla 1992) [By-DusIcTv].mkv – 604.3 MB

20-Mahiya Meinu Yaad Aa Gaya [By-DusIcTv].mkv – 965.6 MB

21-Mai Bani Hoon Sirf – Kanoon [By-DusIcTv].mkv – 586.0 MB

22-Man Basiyaa – (Tere Naam 2003) [By-DusIcTv].mkv – 310.2 MB

23-O Mitwaa (Lagaan – 2001) [By-DusIcTv].mkv – 996.9 MB

24-Sajjan Ji Ghar Aaye [By-DusIcTv].mkv – 246.0 MB

25-Sanam Hum Tum Par Marte Hai – Wajood [By-DusIcTv].mkv – 704.6 MB

26-Soni Kudi-Aarzoo [By-DusIcTv].mkv – 625.6 MB

27-Sunta Hai Mere Khuda [By-DusIcTv].mkv – 632.1 MB

28-Tapka Re Tapka [By-DusIcTv].mkv – 514.0 MB

29-Tayyab Ali – Amar Akbar Anthony [By-DusIcTv].mkv – 671.1 MB

30-Ye To Sach Hai Ki-Hum Saath Saath Hai [By-DusIcTv].mkv – 821.3 MB

31-Zindagi k bina -Haan Maine Bhi Pyar Kiya Hain [By-DusIcTv].mkv – 697.6 MB

0 0 vote
Article Rating
Subscribe
Notify of
guest
4 Comments
Oldest
Newest Most Voted
Inline Feedbacks
View all comments
Jay
Jay
1 year ago

Thanks for above upload. Bro do you take requests? Can you upload the movie Chhoti Si Baat (1976)

Mehedi Hasan
Mehedi Hasan
1 year ago

Thanks For Upload . Can U Upload More Vol Please

Katper
Katper
1 year ago

thanks a ton!

Adnan
Adnan
7 months ago

Links dead…plz re-upload and share gdrive links