Body of Lies 2008 Full Movie Dual Audio {Hindi + English} Blue-ray 720p X264 Esub

 

Format                         : Matroska
Format version                 : Version 4 / Version 2
File size                      : 630 MiB
Duration                       : 2 h 8 min
Overall bit rate               : 686 kb/s
Movie name                     : Body of Lies 2008 GOPISAHI

Video
Format                         : AVC
Codec ID                       : V_MPEG4/ISO/AVC
Duration                       : 2 h 8 min
Bit rate                       : 500 kb/s
Width                          : 976 pixels
Height                         : 416 pixels
Display aspect ratio           : 2.35:1
Frame rate mode                : Constant
Frame rate                     : 23.976 (24000/1001) FPS
Stream size                    : 476 MiB (76%)
Writing library                : x264 core 65 r1074M b6bb3d4

Audio #1
Format                         : AAC
Duration                       : 2 h 8 min
Bit rate                       : 79.3 kb/s
Channel(s)                     : 6 channels
Channel positions              : Front: L C R, Side: L R, LFE
Sampling rate                  : 44.1 kHz
Frame rate                     : 43.066 FPS (1024 SPF)
Stream size                    : 72.7 MiB (12%)
Language                       : English

Audio #2
Format                         : AAC
Duration                       : 2 h 3 min
Bit rate                       : 89.2 kb/s
Channel(s)                     : 6 channels
Channel positions              : Front: L C R, Side: L R, LFE
Sampling rate                  : 44.1 kHz
Frame rate                     : 43.066 FPS (1024 SPF)
Stream size                    : 78.6 MiB (12%)
Language                       : Hindi

Text
Language                       : English

89bd7982ee1cd1ee9c92be189c62947c.jpg
50f6944e483b5c5c2cf57d3a847b1765.jpg
eda5e10a09bb5fd2e7e7d55662ddb99e.jpg
603b076756766cc33b0dba0cc9aa5c3c.jpg
b3e9ae2ef5f2457401bd860c17580f6f.jpg
411d44b00df0966a59679b74a836693c.jpg

PLAY ONLINE

The File Locker Download {630 MiB} {zip}

Quick Download {630 MiB} {zip}

{ Direct } Download  Link {630 MiB}

{ G-Drive } Download  Link {630 MiB}

{ Mega – Drive } Download  Link {630 MiB} {ZIP}

{Media Fire } Download  Link {630 MiB} {zip}

0 0 vote
Article Rating
Subscribe
Notify of
guest
0 Comments
Inline Feedbacks
View all comments