Bluffmaster (2005) (MUSIC VIDEOS ALBUM) 1080p WebHD AVC DD 5.1 By-DusIcTv

xxxxxxxxxxxxxxxxxxxxxxxxxxxxxxxxxxxxxxxxxxxxxxxxxxxxxxxxxxxxxxxxxxxxxxxxxxxxxxxxxxxxxxxxxxxxxxxxxxx
Bluffmaster (2005) (MUSIC VIDEOS ALBUM) 1080p WebHD AVC DD 5.1 By-DusIcTv
xxxxxxxxxxxxxxxxxxxxxxxxxxxxxxxxxxxxxxxxxxxxxxxxxxxxxxxxxxxxxxxxxxxxxxxxxxxxxxxxxxxxxxxxxxxxxxxxxxx

General
Format : Matroska
Format version : Version 4
File size : 1.50 GB
Overall bit rate : 12.4 Mb/s
\Encoded date : UTC 2019-10-19 21:54:45
Writing application : mkvmerge v36.0.0 (‘Is That Jazz?’) 64-bit
Writing library : libebml v1.3.9 + libmatroska v1.5.2

Video
ID : 1
Format : AVC
Format/Info : Advanced Video Codec
Format profile : [email protected]
Format settings : CABAC / 4 Ref Frames
Format settings, CABAC : Yes
Format settings, Reference frames : 4 frames
Codec ID : V_MPEG4/ISO/AVC
Bit rate : 12.0 Mb/s
Width : 1 920 pixels
Height : 816 pixels
Display aspect ratio : 2.35:1
Frame rate mode : Constant
Frame rate : 24.000 FPS
Color space : YUV
Chroma subsampling : 4:2:0
Bit depth : 8 bits
Scan type : Progressive
Bits/(Pixel*Frame) : 0.319
Stream size : 11.3 GiB (96%)
Language : Hindi
Default : Yes
Forced : No

Audio
ID : 2
Format : AC-3
Format/Info : Audio Coding 3
Commercial name : Dolby Digital
Codec ID : A_AC3
Bit rate mode : Constant
Bit rate : 448 kb/s
Channel(s) : 6 channels
Channel layout : L R C LFE Ls Rs
Sampling rate : 48.0 kHz
Frame rate : 31.250 FPS (1536 SPF)
Bit depth : 16 bits
Compression mode : Lossy
Delay relative to video : -42 ms
Stream size : 433 MiB (4%)
Service kind : Complete Main
Default : Yes
Forced : No

01-Sabse Bada Rupaiyya [By-DusIcTv].mkv – 229.9 MB

02-Say Na Say Na [By-DusIcTv].mkv – 360.8 MB

03-Boro Boro [By-DusIcTv].mkv – 355.4 MB

04-Right Here Right Now [By-DusIcTv].mkv – 192.4 MB

05-Parde Ke Peechhe [By-DusIcTv].mkv – 153.7 MB

06-Right Here Right Now (End Roll) [By-DusIcTv].mkv – 250.2 MB

0 0 vote
Article Rating
Subscribe
Notify of
guest
2 Comments
Oldest
Newest Most Voted
Inline Feedbacks
View all comments
Emilio
1 year ago

Please upload Anjaam 1080p AMAZON version

Md siraj
1 year ago

thanedaar 1990 movie Sanjay dutt update please