Bloodshot 2020 1080p WEBRip DDP 5.1 H.264-AJP69 | G- Drive | 11 GB |

Complete name : Bloodshot.2020.1080p.WEBRip.DD+5.1.H.264-AJP69.mkv
Format : Matroska
Format version : Version 4
File size : 11.1 GiB
Duration : 1 h 49 min
Overall bit rate : 14.5 Mb/s
Encoded date : UTC 2020-03-24 08:19:10
Writing application : mkvmerge v43.0.0 (‘The Quartermaster’) 64-bit
Writing library : libebml v1.3.10 + libmatroska v1.5.2

Video
ID : 1
Format : AVC
Format/Info : Advanced Video Codec
Format profile : [email protected]
Format settings : CABAC / 5 Ref Frames
Format settings, CABAC : Yes
Format settings, Reference frames : 5 frames
Codec ID : V_MPEG4/ISO/AVC
Duration : 1 h 49 min
Bit rate : 13.9 Mb/s
Width : 1 920 pixels
Height : 800 pixels
Display aspect ratio : 2.40:1
Frame rate mode : Constant
Frame rate : 23.976 (24000/1001) FPS
Color space : YUV
Chroma subsampling : 4:2:0
Bit depth : 8 bits
Scan type : Progressive
Bits/(Pixel*Frame) : 0.377
Stream size : 10.6 GiB (96%)
Writing library : x264 core 158 r2984 3759fcb
Encoding settings : cabac=1 / ref=5 / deblock=1:-3:-3 / analyse=0x3:0x133 / me=umh / subme=10 / psy=1 / psy_rd=1.00:0.00 / mixed_ref=1 / me_range=48 / chroma_me=1 / trellis=2 / 8x8dct=1 / cqm=0 / deadzone=21,11 / fast_pskip=0 / chroma_qp_offset=-2 / threads=25 / lookahead_threads=4 / sliced_threads=0 / nr=0 / decimate=0 / interlaced=0 / bluray_compat=0 / constrained_intra=0 / bframes=8 / b_pyramid=2 / b_adapt=2 / b_bias=0 / direct=3 / weightb=1 / open_gop=0 / weightp=2 / keyint=250 / keyint_min=23 / scenecut=40 / intra_refresh=0 / rc=crf / mbtree=0 / crf=18.0 / qcomp=0.60 / qpmin=0 / qpmax=69 / qpstep=4 / ip_ratio=1.30 / pb_ratio=1.20 / aq=3:0.80
Default : Yes
Forced : No

Audio
ID : 2
Format : E-AC-3
Format/Info : Enhanced AC-3
Commercial name : Dolby Digital Plus
Codec ID : A_EAC3
Duration : 1 h 49 min
Bit rate mode : Constant
Bit rate : 640 kb/s
Channel(s) : 6 channels
Channel layout : L R C LFE Ls Rs
Sampling rate : 48.0 kHz
Frame rate : 31.250 FPS (1536 SPF)
Compression mode : Lossy
Stream size : 500 MiB (4%)
Language : English
Service kind : Complete Main
Default : Yes
Forced : No

Text #1
ID : 3
Format : UTF-8
Codec ID : S_TEXT/UTF8
Codec ID/Info : UTF-8 Plain Text
Duration : 1 h 41 min
Bit rate : 45 b/s
Count of elements : 1150
Stream size : 33.9 KiB (0%)
Language : English
Default : No
Forced : No

Text #2
ID : 4
Format : UTF-8
Codec ID : S_TEXT/UTF8
Codec ID/Info : UTF-8 Plain Text
Duration : 1 h 47 min
Bit rate : 51 b/s
Count of elements : 1493
Stream size : 40.7 KiB (0%)
Title : SDH
Language : English
Default : No
Forced : No

Menu
00:00:00.000 : en:Studio Logo
00:01:02.000 : en:Scene 2
00:04:10.000 : en:Scene 3
00:05:09.000 : en:Scene 4
00:07:01.000 : en:Scene 5
00:08:51.000 : en:Scene 6
00:13:04.000 : en:Scene 7
00:17:31.000 : en:Scene 8
00:20:39.000 : en:Scene 9
00:22:46.000 : en:Scene 10
00:25:07.000 : en:Scene 11
00:27:57.000 : en:Scene 12
00:29:27.000 : en:Scene 13
00:32:12.000 : en:Scene 14
00:32:43.000 : en:Scene 15
00:38:27.000 : en:Scene 16
00:41:42.000 : en:Scene 17
00:43:21.000 : en:Scene 18
00:50:55.000 : en:Scene 19
00:52:44.000 : en:Scene 20
00:54:16.000 : en:Scene 21
00:56:21.000 : en:Scene 22
01:02:31.000 : en:Scene 23
01:08:10.000 : en:Scene 24
01:09:01.000 : en:Scene 25
01:09:51.000 : en:Scene 26
01:12:44.000 : en:Scene 27
01:17:38.000 : en:Scene 28
01:19:16.000 : en:Scene 29
01:22:21.000 : en:Scene 30
01:27:32.000 : en:Scene 31
01:28:15.000 : en:Scene 32
01:31:09.000 : en:Scene 33
01:35:20.000 : en:Scene 34
01:38:33.000 : en:Scene 35
01:42:38.000 : en:End Credits

G- Drive Download 
0 0 vote
Article Rating
Subscribe
Notify of
guest
0 Comments
Inline Feedbacks
View all comments