Black Christmas 2019 1080p AMZN WEB-Rip DDP5.1 HEVC-DDR

Format                                  : Matroska
Format version                          : Version 4
File size                                : 1.65 GiB
Duration                                : 1 h 32 min
Overall bit rate                        : 2 568 kb/s
Encoded date                            : UTC 2020-03-03 22:31:25
Writing application                      : mkvmerge v42.0.0 (‘Overtime’) 64-bit
Writing library                          : libebml v1.3.10 + libmatroska v1.5.2

Video
ID                                      : 1
Format                                  : HEVC
Format/Info                              : High Efficiency Video Coding
Format profile                          : Main [email protected]@High
Codec ID                                : V_MPEGH/ISO/HEVC
Duration                                : 1 h 32 min
Bit rate                                : 1 926 kb/s
Width                                    : 1 920 pixels
Height                                  : 800 pixels
Display aspect ratio                    : 2.40:1
Frame rate mode                          : Constant
Frame rate                              : 23.976 (24000/1001) FPS
Color space                              : YUV
Chroma subsampling                      : 4:2:0
Bit depth                                : 10 bits
Bits/(Pixel*Frame)                      : 0.052
Stream size                              : 1.24 GiB (75%)
Language                                : English
Default                                  : Yes
Forced                                  : No
Color range                              : Limited
Color primaries                          : BT.709
Transfer characteristics                : BT.709
Matrix coefficients                      : BT.709

Audio
ID                                      : 2
Format                                  : E-AC-3
Format/Info                              : Enhanced AC-3
Commercial name                          : Dolby Digital Plus
Codec ID                                : A_EAC3
Duration                                : 1 h 32 min
Bit rate mode                            : Constant
Bit rate                                : 640 kb/s
Channel(s)                              : 6 channels
Channel layout                          : L R C LFE Ls Rs
Sampling rate                            : 48.0 kHz
Frame rate                              : 31.250 FPS (1536 SPF)
Compression mode                        : Lossy
Stream size                              : 422 MiB (25%)
Language                                : English

[email protected]

https://sharer.pw/file/k_b1yEgtw1y

https://drive.klop.me/file/b546b02a4f

0 0 vote
Article Rating
Subscribe
Notify of
guest
0 Comments
Inline Feedbacks
View all comments