Black and Blue (2019) 1080p | 720p BluRay x264 {Dual Audio} {Hindi-Eng DD 5.1} MSub By~Hammer~

 

Stay Home Stay Safe From Coronavirus

General
Format                                   : Matroska
Format version                           : Version 4 / Version 2
File size                                : 5.72 GiB
Duration                                 : 1 h 47 min
Overall bit rate                         : 7 581 kb/s
Movie name                               : Black and Blue (2019) 1080p BluRay x264 1080p BluRay x264 {Multi Audio} {Hindi-Tam-Tel-Eng DD 5.1} MSub By~Hammer~
Bit rate                                 : 5 000 kb/s
Width                                    : 1 920 pixels
Height                                   : 800 pixels
Display aspect ratio                     : 2.40:1
Frame rate mode                          : Constant
Frame rate                               : 23.976 (24000/1001) FPS
Title                                    : ~EncodeR~Hammer~
Language                                 : English
Default                                  : Yes
Forced                                   : No

Audio #1
Format                                   : AC-3
Format/Info                              : Audio Coding 3
Codec ID                                 : A_AC3
Duration                                 : 1 h 47 min
Bit rate mode                            : Constant
Bit rate                                 : 640 kb/s
Channel(s)                               : 6 channels
Channel positions                        : Front: L C R, Side: L R, LFE
Sampling rate                            : 48.0 kHz
Frame rate                               : 31.250 FPS (1536 SPF)
Bit depth                                : 16 bits
Compression mode                         : Lossy
Stream size                              : 494 MiB (8%)
Title                                    : Hindi Org DD 5.1 640 kbps By~Hammer~
Language                                 : Hindi
Default                                  : Yes
Forced                                   : Yes

Audio #2
Format                                   : AC-3
Format/Info                              : Audio Coding 3
Codec ID                                 : A_AC3
Duration                                 : 1 h 47 min
Bit rate mode                            : Constant
Bit rate                                 : 640 kb/s
Channel(s)                               : 6 channels
Channel positions                        : Front: L C R, Side: L R, LFE
Sampling rate                            : 48.0 kHz
Frame rate                               : 31.250 FPS (1536 SPF)
Bit depth                                : 16 bits
Compression mode                         : Lossy
Stream size                              : 494 MiB (8%)
Title                                    : Tamil Org DD 5.1 640 kbps By~Hammer~
Language                                 : Tamil
Default                                  : No
Forced                                   : No

Audio #3
Format                                   : AC-3
Format/Info                              : Audio Coding 3
Codec ID                                 : A_AC3
Duration                                 : 1 h 47 min
Bit rate mode                            : Constant
Bit rate                                 : 640 kb/s
Channel(s)                               : 6 channels
Channel positions                        : Front: L C R, Side: L R, LFE
Sampling rate                            : 48.0 kHz
Frame rate                               : 31.250 FPS (1536 SPF)
Bit depth                                : 16 bits
Compression mode                         : Lossy
Stream size                              : 494 MiB (8%)
Title                                    : Telugu Org DD 5.1 640 kbps By~Hammer~
Language                                 : Telugu
Default                                  : No
Forced                                   : No

Audio #4
Format                                   : AC-3
Format/Info                              : Audio Coding 3
Codec ID                                 : A_AC3
Duration                                 : 1 h 47 min
Bit rate mode                            : Constant
Bit rate                                 : 640 kb/s
Channel(s)                               : 6 channels
Channel positions                        : Front: L C R, Side: L R, LFE
Sampling rate                            : 48.0 kHz
Frame rate                               : 31.250 FPS (1536 SPF)
Bit depth                                : 16 bits
Compression mode                         : Lossy
Stream size                              : 494 MiB (8%)
Title                                    : English BD 5.1 640 kbps By~Hammer~
Language                                 : English
Default                                  : No
Forced                                   : No

Text #1
Format                                   : UTF-8
Codec ID                                 : S_TEXT/UTF8
Codec ID/Info                            : UTF-8 Plain Text
Duration                                 : 1 h 43 min
Bit rate                                 : 97 b/s
Count of elements                        : 1269
Stream size                              : 74.0 KiB (0%)
Title                                    : Hindi SRT
Language                                 : Hindi
Default                                  : Yes
Forced                                   : No

Text #2
Format                                   : UTF-8
Codec ID                                 : S_TEXT/UTF8
Codec ID/Info                            : UTF-8 Plain Text
Duration                                 : 1 h 43 min
Bit rate                                 : 44 b/s
Count of elements                        : 1269
Stream size                              : 33.3 KiB (0%)
Title                                    : Tamil SRT
Language                                 : Tamil
Default                                  : No
Forced                                   : No

Text #3
Format                                   : UTF-8
Codec ID                                 : S_TEXT/UTF8
Codec ID/Info                            : UTF-8 Plain Text
Duration                                 : 1 h 43 min
Bit rate                                 : 55 b/s
Count of elements                        : 1270
Stream size                              : 41.8 KiB (0%)
Title                                    : Telugu SRT
Language                                 : Telugu
Default                                  : No
Forced                                   : No

Text #4
Format                                   : PGS
Muxing mode                              : zlib
Codec ID                                 : S_HDMV/PGS
Codec ID/Info                            : Picture based subtitle format used on BDs/HD-DVDs
Duration                                 : 1 h 43 min
Bit rate                                 : 21.4 kb/s
Count of elements                        : 2490
Stream size                              : 15.8 MiB (0%)
Title                                    : English PGS
Default                                  : No
Forced                                   : No















1080p

https://drive.klop.me/file/e8b6d4b9a7

https://sharer.pw/file/T4ZTzLukqTG

720p

https://drive.klop.me/file/53406def7a

https://sharer.pw/file/SiYu5voVrsy

0 0 vote
Article Rating
Subscribe
Notify of
guest
1 Comment
Oldest
Newest Most Voted
Inline Feedbacks
View all comments
Hameer Lohana
Hameer Lohana
1 year ago

Plz Upload Spooks The Greater Good (2015) 1080p Dual Audio by Hammer
Thx in advance