Billu Barber (2009) (MUSIC VIDEO ALBUM) 1080p BluRay Rip x264 DTS-HDMA 5.1 ESuBS By-DusIcTv

Billu Barber (2009) (MUSIC VIDEO ALBUM) 1080p BluRay Rip x264 DTS-HDMA 5.1 ESuBS By-DusIcTv

:details:

Format                                   : Matroska
Format version                           : Version 4
File size                                : 2.95 GB
Overall bit rate mode                    : Variable
Overall bit rate                         : 16.6 Mb/s
Writing application  : mkvmerge v35.0.0 (‘All The Love In The World’) 64-bit
Writing library  : libebml v1.3.9 + libmatroska v1.5.2

Video
ID                                       : 1
Format                                   : AVC
Format/Info                              : Advanced Video Codec
Format profile                           : [email protected]
Format settings                          : CABAC / 5 Ref Frames
Format settings, CABAC                   : Yes
Format settings, Reference frames        : 5 frames
Codec ID                                 : V_MPEG4/ISO/AVC
Bit rate                                 : 13.5 Mb/s
Width                                    : 1 920 pixels
Height                                   : 800 pixels
Display aspect ratio                     : 2.40:1
Frame rate mode                          : Constant
Frame rate                               : 23.976 (24000/1001) FPS
Color space                              : YUV
Chroma subsampling                       : 4:2:0
Bit depth                                : 8 bits
Scan type                                : Progressive
Bits/(Pixel*Frame)                       : 0.366
Stream size                              : 468 MiB (81%)
Title                                    : DusIcTv
Language                                 : English
Default                                  : Yes
Forced                                   : No
Color range                              : Limited
Color primaries                          : BT.709
Transfer characteristics                 : BT.709
Matrix coefficients                      : BT.709

Audio
ID                                       : 2
Format                                   : DTS XLL
Format/Info                              : Digital Theater Systems
Commercial name                          : DTS-HD Master Audio
Codec ID                                 : A_DTS
Bit rate mode                            : Variable
Bit rate                                 : 3 087 kb/s
Channel(s)                               : 6 channels
Channel layout                           : C L R Ls Rs LFE
Sampling rate                            : 48.0 kHz
Frame rate                               : 93.750 FPS (512 SPF)
Bit depth                                : 16 bits
Compression mode                         : Lossless
Delay relative to video                  : 6 ms
Stream size                              : 107 MiB (19%)
Title                                    : DusIcTv
Language                                 : Hindi
Default                                  : Yes
Forced                                   : No

Text
ID                                       : 3
Format                                   : PGS
Muxing mode                              : zlib
Codec ID                                 : S_HDMV/PGS
Codec ID/Info        : Picture based subtitle format used on BDs/HD-DVDs
Bit rate                                 : 15.1 kb/s
Count of elements                        : 67
Stream size                              : 407 KiB (0%)
Language                                 : English
Default                                  : Yes
Forced                                   : No

:screens:











:download2:
01-Love Mera Hit Hit [By-DusIcTv].mkv   575.96 MB

https://thefileslocker.com/phkeyj2a2d4m.html

02-Ae Aa O [By-DusIcTv].mkv   720.61 MB

https://thefileslocker.com/mx4zdwmlgi8f.html

03-Billu Bhayankar [By-DusIcTv].mkv   475.72 MB

https://thefileslocker.com/7gmqzoliumt9.html

04-Marjaani [By-DusIcTv].mkv   555.48 MB

https://thefileslocker.com/kp9gubwlbuq9.html

05-Khudaya Khair & You Get Me Rocking [By-DusIcTv].mkv   434.23 MB

https://thefileslocker.com/rk33lzjptnnu.html

06-Jaaun Kahan [By-DusIcTv].mkv   260.95 MB

https://thefileslocker.com/r6w7krevqfr8.html

https://thefileslocker.com/47x1odr4k4wn.html
https://uptobox.com/vcg74cfhpiqq
https://desiupload.to/f/4rjl9w-etdzfiz89horp

0 0 vote
Article Rating
Subscribe
Notify of
guest
0 Comments
Inline Feedbacks
View all comments