Billa (2007) (MUSIC VIDEOS ALBUM) Tamil 1080p Blu-Ray BD REMUX -LPCM 5.1 By-DusIcTv | G- Drive |

xxxxxxxxxxxxxxxxxxxxxxxxxxxxxxxxxxxxxxxxxxxxxxxxxxxxxxxxxxxxxxxxxxxxxxxxxxxxxxxxxxxxxxxxxxxxxxxxxxx
Billa (2007) (MUSIC VIDEOS ALBUM) Tamil 1080p Blu-Ray BD REMUX -LPCM 5.1 By-DusIcTv
xxxxxxxxxxxxxxxxxxxxxxxxxxxxxxxxxxxxxxxxxxxxxxxxxxxxxxxxxxxxxxxxxxxxxxxxxxxxxxxxxxxxxxxxxxxxxxxxxxx

Media info
General
Format : Matroska
Format version : Version 2
File size : 5.32 GB
Overall bit rate mode : Variable
Overall bit rate : 25.3 Mb/s
Encoded date : UTC 2018-02-18 04:16:05
Writing application : mkvmerge v3.3.0 (‘Language’) built on Mar 24 2010 14:59:24
Writing library : libebml v0.8.0 + libmatroska v0.9.0
IsTruncated : Yes

Video
ID : 1
Format : AVC
Format/Info : Advanced Video Codec
Format profile : [email protected]
Format settings : CABAC / 4 Ref Frames
Format settings, CABAC : Yes
Format settings, Reference frames : 4 frames
Codec ID : V_MPEG4/ISO/AVC
Bit rate mode : Variable
Bit rate : 17.9 Mb/s
Maximum bit rate : 35.0 Mb/s
Width : 1 920 pixels
Height : 1 080 pixels
Display aspect ratio : 16:9
Frame rate mode : Constant
Frame rate : 24.000 FPS
Color space : YUV
Chroma subsampling : 4:2:0
Bit depth : 8 bits
Scan type : Progressive
Bits/(Pixel*Frame) : 0.360
Stream size : 542 MiB (71%)
Title : MPEG-4 AVC – 31389 Kbps – 24 fps
Language : Tamil
Default : Yes
Forced : No
Color range : Limited
Color primaries : BT.709
Transfer characteristics : BT.709
Matrix coefficients : BT.709

Audio
ID : 2
Format : PCM
Format settings : Little / Signed
Codec ID : A_PCM/INT/LIT
Bit rate mode : Constant
Bit rate : 6 912 kb/s
Channel(s) : 6 channels
Sampling rate : 48.0 kHz
Bit depth : 24 bits
Delay relative to video : 21 ms
Stream size : 209 MiB (27%)
Title : LPCM 5.1 @ 6912 Kbps – Original
Language : Tamil
Default : Yes
Forced : No

Text
ID : 3
Format : VobSub
Muxing mode : zlib
Codec ID : S_VOBSUB
Codec ID/Info : Picture based subtitle format used on DVDs
Language : English
Default : No
Forced : No

G- Drive Download 

01-Theme Music [By-DusIcTv].mkv – 242.2 MB

02-Sei Yedhavathu Sei [By-DusIcTv].mkv – 766.0 MB

03-Seval Kodi [By-DusIcTv].mkv – 1.2 GB

04-Naan Meendum [By-DusIcTv].mkv – 1.0 GB

05-My Name Is Billa [By-DusIcTv].mkv – 988.5 MB

06-Vethalaiya Potendi [By-DusIcTv].mkv – 1.2 GB

0 0 vote
Article Rating
Subscribe
Notify of
guest
1 Comment
Oldest
Newest Most Voted
Inline Feedbacks
View all comments
smith
smith
1 year ago

great post!!! pls continue posting tamil telugu BD50 songs