Bhoot (2020) Hindi – 1080p HDRip – HEVC – x265 – ESubs -600MB

Bhoot: Part One - The Haunted Ship (2020) - IMDb

Format : Matroska
Format version : Version 4
File size : 581 MiB
Duration : 1 h 50 min
Overall bit rate mode : Variable
Overall bit rate : 737 kb/s
Writing application : Lavf58.28.101
Writing library : Lavf58.28.101
ErrorDetectionType : Per level 1
Video
ID : 1
Format : HEVC
Format/Info : High Efficiency Video Coding
Format profile : [email protected]@Main
Codec ID : V_MPEGH/ISO/HEVC
Duration : 1 h 50 min
Bit rate : 446 kb/s
Width : 1 920 pixels
Height : 800 pixels
Display aspect ratio : 2.40:1
Frame rate mode : Constant
Frame rate : 24.000 FPS
Color space : YUV
Chroma subsampling : 4:2:0
Bit depth : 8 bits
Bits/(Pixel*Frame) : 0.012
Stream size : 352 MiB (61%)
Writing library : Lavc58.53.100 libx265
Default : Yes
Forced : No
Color range : Limited
Audio
ID : 2
Format : Vorbis
Format settings, Floor : 1 / 16898
Codec ID : A_VORBIS
Duration : 1 h 50 min
Bit rate mode : Variable
Bit rate : 276 kb/s
Channel(s) : 6 channels
Sampling rate : 48.0 kHz
Compression mode : Lossy
Stream size : 218 MiB (37%)
Writing application : Lavc58.53.100
Writing library : libVorbis (Now 100% fewer shells) (20180316 (Now 100% fewer shells))
Default : No
Forced : No
Text
ID : 3
Format : ASS
Codec ID : S_TEXT/ASS
Codec ID/Info : Advanced Sub Station Alpha
Duration : 1 h 40 min
Compression mode : Lossless
Writing library : Lavc58.53.100 ssa
Default : No
Forced : No

vlcsnap 2020 04 21 12h48m14s993vlcsnap 2020 04 21 12h49m45s005vlcsnap 2020 04 21 12h16m39s813vlcsnap 2020 04 21 12h17m32s505vlcsnap 2020 04 21 12h17m03s157vlcsnap 2020 04 21 12h17m39s315
Gdrive Single Link+Download

https://bit.ly/2KqQqnm

Gofile.io Single Link+Download

https://bit.ly/2zgfnQ8

0 0 vote
Article Rating
Subscribe
Notify of
guest
0 Comments
Inline Feedbacks
View all comments