Bharat (2019) Hindi [Re Upload] 1080p WebHD AVC DDP 5.1 {Music Video} ESuBS By-DusIcTv

General
Format                         : Matroska
Format version                 : Version 4
File size                      : 2.18 GB
Overall bit rate               : 10.4 Mb/s
Writing application            : mkvmerge v35.0.0 (‘All The Love In The World’) 64-bit
Writing library                : libebml v1.3.9 + libmatroska v1.5.2

Video
ID                             : 2
Format                         : AVC
Format/Info                    : Advanced Video Codec
Format profile                 : [email protected]
Format settings                : CABAC / 4 Ref Frames
Format settings, CABAC         : Yes
Format settings, Reference fra : 4 frames
Codec ID                       : V_MPEG4/ISO/AVC
Bit rate mode                  : Constant
Bit rate                       : 10000 kb/s
Width                          : 1920 pixels
Height                         : 816 pixels
Display aspect ratio           : 2.35:1
Frame rate mode                : Constant
Frame rate                     : 24.000 FPS
Color space                    : YUV
Chroma subsampling             : 4:2:0
Bit depth                      : 8 bits
Scan type                      : Progressive
Bits/(Pixel*Frame)             : 0.266
Stream size                    : 317 MiB (94%)
Title                          : DusIcTv
Default                        : Yes
Forced                         : No
Color range                    : Limited
Color primaries                : BT.709
Transfer characteristics       : BT.709
Matrix coefficients            : BT.709

Audio
ID                             : 3
Format                         : E-AC-3
Format/Info                    : Enhanced AC-3
Commercial name                : Dolby Digital Plus
Codec ID                       : A_EAC3
Bit rate mode                  : Constant
Bit rate                       : 640 kb/s
Channel(s)                     : 6 channels
Channel layout                 : L R C LFE Ls Rs
Sampling rate                  : 48.0 kHz
Frame rate                     : 31.250 FPS (1536 SPF)
Compression mode               : Lossy
Stream size                    : 20.8 MiB (6%)
Language                       : Hindi
Service kind                   : Complete Main
Default                        : Yes
Forced                         : No

Text
ID                             : 1
Format                         : UTF-8
Codec ID                       : S_TEXT/UTF8
Codec ID/Info                  : UTF-8 Plain Text
Bit rate                       : 39 b/s
Count of elements              : 33
Stream size                    : 1.31 KiB (0%)
Title                          : DusIcTv
Default                        : Yes
Forced                         : No

01-Thap Thap [By-DusIcTv].mkv – 96.4 MB

02-Slow Motion [By-DusIcTv].mkv – 337.7 MB

03-Chashni [By-DusIcTv].mkv – 230.3 MB

04-Zinda [By-DusIcTv].mkv – 152.9 MB

05-Aithey Aa [By-DusIcTv].mkv – 297.1 MB

06-Zinda (II) [By-DusIcTv].mkv – 159.3 MB

07-Turpeya [By-DusIcTv].mkv – 255.7 MB

08-Aaya Na Tu [By-DusIcTv].mkv – 380.2 MB

09-Aithey Aa _ Zinda (End Roll) [By-DusIcTv].mkv – 323.7 MB

 

0 0 vote
Article Rating
Subscribe
Notify of
guest
0 Comments
Inline Feedbacks
View all comments