Better Call Saul (2015) Season 2 S02 + Extras (1080p BluRay x265 HEVC 10bit AAC 5.1 RZeroX) [QxR] | G-Drive |

 

General
Format : Matroska
Format version : Version 4 / Version 2
File size : 2.33 GiB
Duration : 46 min 58 s
Overall bit rate : 7 088 kb/s
Movie name : Better Call Saul – Season 2 – Disc 1
Encoded date : UTC 2018-09-01 06:18:32
Writing application : mkvmerge v25.0.0 (‘Prog Noir’) 64-bit
Writing library : libebml v1.3.6 + libmatroska v1.4.9

Video
ID : 1
Format : HEVC
Format/Info : High Efficiency Video Coding
Format profile : Main [email protected]@Main
Codec ID : V_MPEGH/ISO/HEVC
Duration : 46 min 58 s
Bit rate : 5 723 kb/s
Width : 1 920 pixels
Height : 1 080 pixels
Display aspect ratio : 16:9
Frame rate mode : Constant
Frame rate : 23.976 (24000/1001) FPS
Color space : YUV
Chroma subsampling : 4:2:0
Bit depth : 10 bits
Bits/(Pixel*Frame) : 0.115
Stream size : 1.88 GiB (81%)

Audio #1
ID : 2
Format : AAC
Format/Info : Advanced Audio Codec
Format profile : LC
Codec ID : A_AAC
Duration : 46 min 58 s
Bit rate : 436 kb/s
Channel(s) : 6 channels
Channel positions : Front: L C R, Side: L R, LFE
Sampling rate : 48.0 kHz
Frame rate : 46.875 FPS (1024 spf)
Compression mode : Lossy
Delay relative to video : 20 ms
Stream size : 146 MiB (6%)
Language : English
Default : No
Forced : No

G-Drive Single Epiosde Download

G-Drive Zip Download 21.GB

Better Call Saul (2015) – S02E01 – Switch (1080p BluRay x265 RZeroX).mkv – 2.3 GB

Better Call Saul (2015) – S02E02 – Cobbler (1080p BluRay x265 RZeroX).mkv – 1.8 GB

Better Call Saul (2015) – S02E03 – Amarillo (1080p BluRay x265 RZeroX).mkv – 1.8 GB

Better Call Saul (2015) – S02E04 – Gloves Off (1080p BluRay x265 RZeroX).mkv – 1.8 GB

Better Call Saul (2015) – S02E05 – Rebecca (1080p BluRay x265 RZeroX).mkv – 1.6 GB

Better Call Saul (2015) – S02E06 – Bali Ha’i (1080p BluRay x265 RZeroX).mkv – 1.9 GB

Better Call Saul (2015) – S02E07 – Inflatable (1080p BluRay x265 RZeroX).mkv – 1.7 GB

Better Call Saul (2015) – S02E08 – Fifi (1080p BluRay x265 RZeroX).mkv – 2.1 GB

Better Call Saul (2015) – S02E09 – Nailed (1080p BluRay x265 RZeroX).mkv – 2.0 GB

Better Call Saul (2015) – S02E10 – Klick (1080p BluRay x265 RZeroX).mkv – 1.8 GB

0 0 vote
Article Rating
Subscribe
Notify of
guest
0 Comments
Inline Feedbacks
View all comments