Barsaat (1995) Hindi 1080p Untouched Webhd AVC {Music Video}

Thanks to special 26

Format                         : Matroska
Format version                 : Version 4
File size                      : 1.23 GB
Overall bit rate mode          : Variable

Overall bit rate               : 6 705 kb/s

Video
ID                             : 1
Format                         : AVC
Format/Info                    : Advanced Video Codec
Format profile                 : [email protected]
Format settings                : CABAC / 3 Ref Frames
Format settings, CABAC         : Yes
Format settings, ReFrames      : 3 frames
Codec ID                       : V_MPEG4/ISO/AVC
Bit rate mode                  : Variable
Bit rate                       : 6 574 kb/s
Maximum bit rate               : 9 735 kb/s
Width                          : 1 920 pixels
Height                         : 1 080 pixels
Display aspect ratio           : 16:9
Frame rate mode                : Constant
Frame rate                     : 25.000 FPS
Color space                    : YUV
Chroma subsampling             : 4:2:0
Bit depth                      : 8 bits
Scan type                      : Progressive
Bits/(Pixel*Frame)             : 0.127
Stream size                    : 210 MiB (98%)
Language                       : Hindi
Default                        : Yes
Forced                         : No

Audio
ID                             : 2
Format                         : E-AC-3
Format/Info                    : Enhanced AC-3
Commercial name                : Dolby Digital Plus
Codec ID                       : A_EAC3
Bit rate mode                  : Constant
Bit rate                       : 128 kb/s
Channel(s)                     : 2 channels
Channel layout                 : L R
Sampling rate                  : 48.0 kHz
Frame rate                     : 31.250 FPS (1536 SPF)
Compression mode               : Lossy
Delay relative to video        : 16 ms
Stream size                    : 4.09 MiB (2%)
Language                       : Hindi
Service kind                   : Complete Main
Default                        : No
Forced                         : No


Screenshots

bb00ae07f79d4f5b9681db6f8f196b00.md.png
592a0b9c8c983a972d715f609a51250d.md.png
e8335ab6a7770ca931c9995c2de06828.md.png
0986127afabbfd45f5473cd5f745e258.md.png
786b8132db3508be930a9dcf07dfd178.md.png
b7ebedb72d2645c3f85ca1ed7e5d4011.md.png
2bccfc4abeb6e744f926cbd5c76c605a.md.png
326d34995b896f3528a94cb84ec74e83.md.png
9a11c64e82f2e79a4af50bf24f1b8f79.md.png
f299122b7ef1b9aa0c434d6595f44869.md.png
a01117bc86cf09e683698c55d18296f7.md.png
1c2a818276187f756b88120150079a16.md.png

{ Media Fire } Download  Link 

0 0 vote
Article Rating
Subscribe
Notify of
guest
0 Comments
Inline Feedbacks
View all comments