Bandhan (1998) (MUSIC VIDEOS ALBUM) 1080p Untouched WebHD AVC AAC By-DusIcTv

Bandhan (1998) (MUSIC VIDEOS ALBUM) 1080p Untouched WebHD AVC AAC By-DusIcTv


xxxxxxxxxxxxxxxxxxxxxxxxxxxxxxxxxxxxxxxxxxxxxxxxxxxxxxxxxxxxxxx
Bandhan (1998) (MUSIC VIDEOS ALBUM) 1080p Untouched WebHD AVC AAC By-DusIcTv
xxxxxxxxxxxxxxxxxxxxxxxxxxxxxxxxxxxxxxxxxxxxxxxxxxxxxxxxxxxxxxx

:details:
Format                                   : Matroska
Format version                           : Version 4
File size                                : 707 MB
Overall bit rate                         : 4 575 kb/s
Writing application   : mkvmerge v36.0.0 (‘Is That Jazz?’) 32-bit
Writing library : libebml v1.3.9 + libmatroska v1.5.2

Video
ID                                       : 1
Format                                   : AVC
Format/Info                              : Advanced Video Codec
Format profile                           : [email protected]
Format settings                          : CABAC / 1 Ref Frames
Format settings, CABAC                   : Yes
Format settings, Reference frames        : 1 frame
Format settings, GOP                     : M=1, N=25
Codec ID                                 : V_MPEG4/ISO/AVC
Bit rate mode                            : Constant
Bit rate                                 : 4 500 kb/s
Width                                    : 1 920 pixels
Height                                   : 1 080 pixels
Display aspect ratio                     : 16:9
Frame rate mode                          : Constant
Frame rate                               : 25.000 FPS
Color space                              : YUV
Chroma subsampling                       : 4:2:0
Bit depth                                : 8 bits
Scan type                                : Progressive
Bits/(Pixel*Frame)                       : 0.087
Stream size                              : 104 MiB (99%)
Default                                  : Yes
Forced                                   : No

Audio
ID                                       : 2
Format                                   : AAC LC
Format/Info                              : Advanced Audio Codec
Codec ID                                 : A_AAC-2
Bit rate                                 : 61.4 kb/s
Channel(s)                               : 2 channels
Channel layout                           : L R
Sampling rate                            : 48.0 kHz
Frame rate                               : 46.875 FPS (1024 SPF)
Compression mode                         : Lossy
Delay relative to video                  : 16 ms
Stream size                              : 1.42 MiB (1%)
Default                                  : Yes
Forced                                   : No

:screens:




:download2:
01-Bandhan (Title Song) [By-DusIcTv].mkv – 105.8 MB

https://thefileslocker.com/smjc237d1amt.html

02-Main Deewani Main Mastani [By-DusIcTv].mkv – 134.2 MB

https://thefileslocker.com/vpdkquvzivg1.html

03-Tere Naina Mere Naino Ki [By-DusIcTv].mkv – 167.9 MB

https://thefileslocker.com/twokndl8c0ja.html

04-Chhora Phisal Gaya [By-DusIcTv].mkv – 147.7 MB

https://thefileslocker.com/xdkts8t0nbc7.html

05-Balle Balle [By-DusIcTv].mkv – 152.2 MB

https://thefileslocker.com/6h047iizqf5g.html

0 0 vote
Article Rating
Subscribe
Notify of
guest
0 Comments
Inline Feedbacks
View all comments