Balto: Wolf Quest (2002) Full English Movie 720p 600MB

Video
ID : 1
Format : AVC
Format/Info : Advanced Video Codec
Format profile : [email protected]
Format settings : CABAC / 9 Ref Frames
Format settings, CABAC : Yes
Format settings, RefFrames : 9 frames
Codec ID : avc1
Codec ID/Info : Advanced Video Coding
Duration : 1 h 15 min
Bit rate : 1 014 kb/s
Maximum bit rate : 3 756 kb/s
Width : 1 280 pixels
Height : 720 pixels
Display aspect ratio : 16:9
Frame rate mode : Constant
Frame rate : 23.976 (24000/1001) FPS
Color space : YUV
Chroma subsampling : 4:2:0
Bit depth : 8 bits
Scan type : Progressive
Bits/(Pixel*Frame) : 0.046
Stream size : 547 MiB (91%)

Audio
ID : 2
Format : AAC LC
Format/Info : Advanced Audio Codec Low Complexity
Codec ID : mp4a-40-2
Duration : 1 h 15 min
Bit rate mode : Variable
Bit rate : 96.0 kb/s
Maximum bit rate : 153 kb/s
Channel(s) : 2 channels
Channel layout : L R
Sampling rate : 48.0 kHz
Frame rate : 46.875 FPS (1024 SPF)
Compression mode : Lossy
Stream size : 51.8 MiB (9%)
Encoded date : UTC 2013-03-12 01:06:05
Tagged date : UTC 2013-03-12 02:12:44


ScreenShots

5cc7920eab4a22e525182b50f8f4aa3a.jpg
f4fd822c78e46f1a62180d42fc59a3fc.jpg
862add5befca1f6691107b7185fbad5b.jpg
25f8f2ec752e7930ad19c9e4c8c037e1.jpg
62f3ed40734a70bb6a4c5d721fc9387e.jpg
8c32d0f82bcd5dfd46e0b503ca566fd7.jpg
373c59b70d6242c654b9ba314bb9669a.jpg
b62103ec1810066acb9f3da42a9a3bb4.jpg
8392ac86c8378c531d8ef292cc72e14a.jpg
52e9d32511585bfee41aded127d2f840.jpg

{ Direct } Download  Link {600 MB}

{ G-Drive } Download  Link {600 MB}

{ Mega – Drive } Download  Link {600 MB} {ZIP}

{Media Fire } Download  Link {600 MB} {zip}

 

 

0 0 vote
Article Rating
Subscribe
Notify of
guest
0 Comments
Inline Feedbacks
View all comments