Bahubali 1 (2015) (MUSIC VIDEO ALBUM) Untouched – BD50 DOLBY ATMOS TrueHD 7.1

Video
ID : 4113 (0x1011)
Menu ID : 1 (0x1)
Format : AVC
Format/Info : Advanced Video Codec
Format profile : [email protected]
Format settings : CABAC / 4 Ref Frames
Format settings, CABAC : Yes
Format settings, RefFrames : 4 frames
Codec ID : 27
Duration : 3 min 23 s
Bit rate mode : Constant
Bit rate : 37.7 Mb/s
Nominal bit rate : 30.0 Mb/s
Width : 1 920 pixels
Height : 1 080 pixels
Display aspect ratio : 16:9
Frame rate : 24.000 FPS
Color space : YUV
Chroma subsampling : 4:2:0
Bit depth : 8 bits
Scan type : Progressive
Bits/(Pixel*Frame) : 0.758
Stream size : 913 MiB (93%)

Audio #1
ID : 4352 (0x1100)
Menu ID : 1 (0x1)
Format : AC-3 MLP FBA 16-ch
Format/Info : Audio Coding 3 + Meridian Lossless Packing FBA with 16-channel presentation
Commercial name : Dolby TrueHD with Dolby Atmos
Muxing mode : Stream extension
Codec ID : 131
Duration : 3 min 23 s
Bit rate mode : Variable
Bit rate : 640 kb/s
Maximum bit rate : 9 030 kb/s
Channel(s) : 8 channels
Channel layout : L R C LFE Ls Rs Lb Rb
Sampling rate : 48.0 kHz
Frame rate : 31.250 FPS (1536 SPF)
Bit depth : 16 bits
Compression mode : Lossy
Delay relative to video : -50 ms
Stream size : 15.6 MiB (2%)
Language : Hindi
Service kind : Complete Main
Number of dynamic objects : 11
Bed channel count : 1 channel
Bed channel configuration : LFE


4304571745dcc01260b96592f30c0b91.jpg
de51efa95259f94f20b3bdb1c6a19ead.jpg
6a709abfc6d982bb95e42a7731eea1af.jpg
051e97009fb661615ec5efcdbaadd61c.jpg
bbca3fa37e0e304053731bd5f6cd9302.jpg
bab7be71cd79279d3eb336b77c987031.jpg
36a5c5b9aa4ee833cc4a597df642741a.jpg
e55782da0ebb74b848138e3f1b6b5f58.jpg
6aaf59da3e14604d469d5edaca2b87b7.jpg

01-Swapn Sunehere [TeaM DuS].m2ts – 339.5 MB

02-Kaun Hain Voh [TeaM DuS].m2ts – 987.3 MB

03-Dhivara [TeaM DuS].m2ts – 1.7 GB

04-Khoya Hain [TeaM DuS].m2ts – 588.8 MB

05-Panchhi Bole [TeaM DuS].m2ts – 856.9 MB

06-Jal Rahin Hain [TeaM DuS].m2ts – 654.4 MB

07-Mamta Se Bhari [TeaM DuS].m2ts – 1.2 GB

08-Manohari [TeaM DuS].m2ts – 1.0 GB

10-Swapn Sunehere End Roll [TeaM DuS].m2ts – 1.1 GB

0 0 vote
Article Rating
Subscribe
Notify of
guest
1 Comment
Oldest
Newest Most Voted
Inline Feedbacks
View all comments
Tariq 806
Tariq 806
1 year ago

Dear Sir….

plz uoload telugu movie songs

★ Aagadu (2014) BD50 – Untouched BluRay 1080p AVC DTS HDMA M2TS