Baghban (2003) (MUSIC VIDEO ALBUM) 1080p BluRay Rip x264 DTS-HDMA 5.1 ESuBS By-DusIcTv

xxxxxxxxxxxxxxxxxxxxxxxxxxxxxxxxxxxxxxxxxxxxxxxxxxxxxxxxxxxxxxx
Baghban (2003) (MUSIC VIDEO ALBUM) 1080p BluRay Rip x264 DTS-HDMA 5.1 ESuBS By-DusIcTv
xxxxxxxxxxxxxxxxxxxxxxxxxxxxxxxxxxxxxxxxxxxxxxxxxxxxxxxxxxxxxxx

Media info
General
Format : Matroska
Format version : Version 4
File size : 3.07 GB
Overall bit rate mode : Variable
Overall bit rate : 11.9 Mb/s
Encoded date : UTC 2019-08-17 05:06:16
Writing application : mkvmerge v35.0.0 (‘All The Love In The World’) 64-bit
Writing library : libebml v1.3.9 + libmatroska v1.5.2

Video
ID : 1
Format : AVC
Format/Info : Advanced Video Codec
Format profile : [email protected]
Format settings : CABAC / 5 Ref Frames
Format settings, CABAC : Yes
Format settings, Reference frames : 5 frames
Codec ID : V_MPEG4/ISO/AVC
Bit rate : 9 365 kb/s
Width : 1 920 pixels
Height : 816 pixels
Display aspect ratio : 2.35:1
Frame rate mode : Constant
Frame rate : 24.000 FPS
Color space : YUV
Chroma subsampling : 4:2:0
Bit depth : 8 bits
Scan type : Progressive
Bits/(Pixel*Frame) : 0.249
Stream size : 142 MiB (79%)
Language : English
Default : Yes
Forced : No
Color range : Limited
Color primaries : BT.709
Transfer characteristics : BT.709
Matrix coefficients : BT.709

Audio
ID : 2
Format : DTS XLL
Format/Info : Digital Theater Systems
Commercial name : DTS-HD Master Audio
Codec ID : A_DTS
Bit rate mode : Variable
Bit rate : 2 482 kb/s
Channel(s) : 6 channels
Channel layout : C L R Ls Rs LFE
Sampling rate : 48.0 kHz
Frame rate : 93.750 FPS (512 SPF)
Bit depth : 16 bits
Compression mode : Lossless
Delay relative to video : 2 ms
Stream size : 37.7 MiB (21%)
Language : Hindi
Default : Yes
Forced : No

Text
ID : 3
Format : PGS
Muxing mode : zlib
Codec ID : S_HDMV/PGS
Codec ID/Info : Picture based subtitle format used on BDs/HD-DVDs
Bit rate : 26.5 kb/s
Count of elements : 32
Stream size : 378 KiB (0%)
Language : English
Default : Yes
Forced : No

Screenshots

G- Drive Download

01-Baghban (Title Song) 1st [By-DusIcTv].mkv – 180.2 MB

02-Meri Makhna [By-DusIcTv].mkv – 663.5 MB

03-Pehle Kabhi Na Mera Haal [By-DusIcTv].mkv – 302.9 MB

04-Hori Khele Raghuveera [By-DusIcTv].mkv – 532.2 MB

05-Baghban (Title Song) 2nd [By-DusIcTv].mkv – 88.8 MB

06-Baghban (Title Song) 3rd [By-DusIcTv].mkv – 101.9 MB

07-Main Yahan Tu Wahan [By-DusIcTv].mkv – 395.5 MB

08-Main Yahan Tu Wahan (2nd) [By-DusIcTv].mkv – 132.3 MB

09-Chali Chali Phir Chali [By-DusIcTv].mkv – 532.4 MB

10-Baghban (Title Song) 4th [By-DusIcTv].mkv – 131.5 MB

11-Om Jai Jagdish (Aarti) [By-DusIcTv].mkv – 30.5 MB

12-Baghban (Title Song) End Roll [By-DusIcTv].mkv – 57.6 MB

0 0 vote
Article Rating
Subscribe
Notify of
guest
0 Comments
Inline Feedbacks
View all comments