Badmaash Company 2010 Hindi 1080p BluRay x264 DD 5.1 ESubs – LOKiHD – Telly 4.04Gb

Badmaash Company 2010 Blu-ray Shahid Kapoor / Hindi Film ...

Format : Matroska
Format version : Version 4
File size : 4.02 GiB
Duration : 2 h 21 min
Overall bit rate : 4 068 kb/s
Movie name : Badmaash Company 2010 Hindi 1080p BluRay x264 DD 5.1 ESubs – LOKiHD – Telly
Encoded date : UTC 2020-06-02 16:51:59
Writing application : mkvmerge v46.0.0 (‘No Deeper Escape’) 64-bit
Writing library : libebml v1.3.10 + libmatroska v1.5.2

Video
ID : 1
Format : AVC
Format/Info : Advanced Video Codec
Format profile : [email protected]
Format settings : CABAC / 5 Ref Frames
Format settings, CABAC : Yes
Format settings, Reference frames : 5 frames
Codec ID : V_MPEG4/ISO/AVC
Duration : 2 h 21 min
Bit rate : 3 583 kb/s
Width : 1 920 pixels
Height : 816 pixels
Display aspect ratio : 2.35:1
Frame rate mode : Constant
Frame rate : 24.000 FPS
Color space : YUV
Chroma subsampling : 4:2:0
Bit depth : 8 bits
Scan type : Progressive
Bits/(Pixel*Frame) : 0.095
Stream size : 3.54 GiB (88%)
Title : [email protected]
Writing library : x264 core 157 r2969 d4099dd
Encoding settings : cabac=1 / ref=5 / deblock=1:0:0 / analyse=0x3:0x133 / me=umh / subme=8 / psy=1 / psy_rd=1.50:0.00 / mixed_ref=1 / me_range=48 / chroma_me=1 / trellis=2 / 8x8dct=1 / cqm=0 / deadzone=21,11 / fast_pskip=1 / chroma_qp_offset=0 / threads=25 / lookahead_threads=6 / sliced_threads=0 / nr=0 / decimate=1 / interlaced=0 / bluray_compat=0 / constrained_intra=0 / bframes=5 / b_pyramid=2 / b_adapt=2 / b_bias=0 / direct=3 / weightb=1 / open_gop=0 / weightp=2 / keyint=230 / keyint_min=21 / scenecut=40 / intra_refresh=0 / rc_lookahead=60 / rc=2pass / mbtree=1 / bitrate=3583 / ratetol=1.0 / qcomp=0.60 / qpmin=0 / qpmax=69 / qpstep=4 / cplxblur=20.0 / qblur=0.5 / vbv_maxrate=30000 / vbv_bufsize=40000 / nal_hrd=none / filler=0 / ip_ratio=1.40 / aq=2:1.00
Language : Hindi
Default : Yes
Forced : Yes

Audio
ID : 2
Format : AC-3
Format/Info : Audio Coding 3
Commercial name : Dolby Digital
Codec ID : A_AC3
Duration : 2 h 21 min
Bit rate mode : Constant
Bit rate : 448 kb/s
Channel(s) : 6 channels
Channel layout : L R C LFE Ls Rs
Sampling rate : 48.0 kHz
Frame rate : 31.250 FPS (1536 SPF)
Compression mode : Lossy
Stream size : 454 MiB (11%)
Title : [email protected]
Language : Hindi
Service kind : Complete Main
Default : Yes
Forced : Yes

Text
ID : 3
Format : PGS
Codec ID : S_HDMV/PGS
Codec ID/Info : Picture based subtitle format used on BDs/HD-DVDs
Duration : 2 h 20 min
Bit rate : 36.1 kb/s
Count of elements : 3352
Stream size : 36.2 MiB (1%)
Title : English
Language : English
Default : Yes
Forced : Yes

Menu
00:00:00.000 : :Chapter 01
00:02:37.083 : :Chapter 02
00:09:31.375 : :Chapter 03
00:13:55.542 : :Chapter 04
00:19:15.125 : :Chapter 05
00:25:34.333 : :Chapter 06
00:27:10.875 : :Chapter 07
00:32:57.125 : :Chapter 08
00:41:01.500 : :Chapter 09
00:46:20.583 : :Chapter 10
00:50:25.875 : :Chapter 11
00:58:20.625 : :Chapter 12
01:02:01.750 : :Chapter 13
01:15:44.833 : :Chapter 14
01:18:53.292 : :Chapter 15
01:25:54.333 : :Chapter 16
01:29:53.042 : :Chapter 17
01:42:58.667 : :Chapter 18
01:47:47.042 : :Chapter 19
01:52:11.500 : :Chapter 20
01:55:28.000 : :Chapter 21
02:06:39.083 : :Chapter 22
02:16:17.750 : :Chapter 23
02:18:14.375 : :Chapter 24


Badmaash Company 2010 Hindi 1080p BluRay x264 DD 5.1 ESubs LOKiHD Telly.mkv snapshot 02.17.30.375Badmaash Company 2010 Hindi 1080p BluRay x264 DD 5.1 ESubs LOKiHD Telly.mkv snapshot 01.56.23.125Badmaash Company 2010 Hindi 1080p BluRay x264 DD 5.1 ESubs LOKiHD Telly.mkv snapshot 01.26.20.625Badmaash Company 2010 Hindi 1080p BluRay x264 DD 5.1 ESubs LOKiHD Telly.mkv snapshot 00.17.17.833Badmaash Company 2010 Hindi 1080p BluRay x264 DD 5.1 ESubs LOKiHD Telly.mkv snapshot 00.42.04.250
Gdrive Single Link+Download
https://bit.ly/3gUgjuU

Alternative Link+Dowload Single Link
https://bit.ly/3gVaCNo

0 0 vote
Article Rating
Subscribe
Notify of
guest
0 Comments
Inline Feedbacks
View all comments