Badal (2000) (MUSIC VIDEOS ALBUM) 1080p Untouched WebHD AVC DDP 2.0 By-DusIcTv

Badal (2000) (MUSIC VIDEOS ALBUM) 1080p Untouched WebHD AVC DDP 2.0 By-DusIcTv

xxxxxxxxxxxxxxxxxxxxxxxxxxxxxxxxxxxxxxxxxxxxxxxxxxxxxxxxxxxxxxxxxxxxxxxxxxxxxxxxxxxxxxxxxxxxxxxxxxx
Badal (2000) (MUSIC VIDEOS ALBUM) 1080p Untouched WebHD AVC DDP 2.0 By-DusIcTv
xxxxxxxxxxxxxxxxxxxxxxxxxxxxxxxxxxxxxxxxxxxxxxxxxxxxxxxxxxxxxxxxxxxxxxxxxxxxxxxxxxxxxxxxxxxxxxxxxxx

:details:

Format : Matroska
Format version : Version 4
File size : 2.54 GB
Overall bit rate : 8 403 kb/s

Writing application : mkvmerge v36.0.0 (‘Is That Jazz?’) 32-bit
Writing library : libebml v1.3.9 + libmatroska v1.5.2

Video
ID : 3
Format : AVC
Format/Info : Advanced Video Codec
Format profile : [email protected]
Format settings : CABAC / 4 Ref Frames
Format settings, CABAC : Yes
Format settings, Reference frames : 4 frames
Codec ID : V_MPEG4/ISO/AVC
Bit rate : 8178 kb/s
Width : 1920 pixels
Height : 1080 pixels
Display aspect ratio : 16:9
Frame rate mode : Constant
Frame rate : 25.000 FPS
Color space : YUV
Chroma subsampling : 4:2:0
Bit depth : 8 bits
Scan type : Progressive
Bits/(Pixel*Frame) : 0.158
Stream size : 280 MiB (97%)
Default : Yes
Forced : No
Color range : Limited
Color primaries : BT.709
Transfer characteristics : BT.709
Matrix coefficients : BT.709

Audio
ID : 1
Format : E-AC-3
Format/Info : Enhanced AC-3
Commercial name : Dolby Digital Plus
Codec ID : A_EAC3
Bit rate mode : Constant
Bit rate : 224 kb/s
Channel(s) : 2 channels
Channel layout : L R
Sampling rate : 48.0 kHz
Frame rate : 31.250 FPS (1536 SPF)
Compression mode : Lossy
Delay relative to video : 24 ms
Stream size : 7.66 MiB (3%)
Language : Hindi
Service kind : Complete Main
Default : Yes
Forced : No

Text
ID : 2
Format : UTF-8
Codec ID : S_TEXT/UTF8
Codec ID/Info : UTF-8 Plain Text
Bit rate : 45 b/s
Count of elements : 46
Stream size : 1.59 KiB (0%)
Language : English
Default : Yes
Forced : No

:screens:









:download2:
01-Lal Garara [By-DusIcTv].mkv   534.03 MB

https://thefileslocker.com/xng53jimhbge.html

02-Kahin Pyar Ho Naa Jaaye [By-DusIcTv].mkv   287.44 MB

https://thefileslocker.com/wsvoj8fez9c8.html

03-Jugni Jugni [By-DusIcTv].mkv   625.68 MB

https://thefileslocker.com/qv99hko4978m.html

04-Yaar Mere Yaara Mere [By-DusIcTv].mkv   284.13 MB

https://thefileslocker.com/e3mnmuayj8ej.html

05-Allah Allah [By-DusIcTv].mkv   247.50 MB

https://thefileslocker.com/3lzle7f9edng.html

06-Tujhe Dekh Ke Dil [By-DusIcTv].mkv   535.16 MB

https://thefileslocker.com/wxobetnagp52.html

07-All Mix Songs (End Roll) [By-DusIcTv].mkv   90.80 MB

https://thefileslocker.com/89yz0l8x2alu.html

https://thefileslocker.com/bwgy5xo7c5pz.html
https://uploader.link/f/6j1n6e-ens5b8mfdaod9
https://uptobox.com/2qqx4g0lsn28

0 0 vote
Article Rating
Subscribe
Notify of
guest
0 Comments
Inline Feedbacks
View all comments